Корабль-призрак / Корабль-призрак (Стив Бек) [2002 г., ужасы, триллер, детектив, ..., BDRip]

Ответить на тему
 

bexruz_muxsinov1 ®

Стаж: 4 года 9 месяцев

Сообщений: 18

Симпатии: 2

Корабль-призрак / Корабль-призрак
Год выпуска: 2002
Страна: США, Австралия
Жанр: ужасы, триллер, детектив, ...
Продолжительность: 01:30:43
Перевод: Профессиональный (полное дублирование)
Режиссер: Стив Бек
В ролях: Гэбриэл Бирн /Gabriel Byrne/, Джулианна Маргулис /Julianna Margulies/, Рон Элдард /Ron Eldard/, Десмонд Харрингтон /Desmond Harrington/, Айзэйя Вашингтон /Isaiah Washington/, Алекс Димитриадес /Alex Dimitriades/, Карл Урбан /Karl Urban/, Эмили Браунинг /Emily Browning/, Франческа Реттондини /Francesca Rettondini/, Борис Бркич /Boris Brkic/
Описание: В отдаленной области Берингова моря команда спасателей обнаруживает останки огромного пассажирского лайнера, который считался погибшим более 40 лет назад. Оказавшись на борту судна, спасатели сталкиваются с жутким прошлым корабля и вынуждены вступить в смертельную схватку…
бюджет: $20 000 000
маркетинг: $20 000 000
сборы в США: $30 113 491
сборы в мире: + $38 236 393 = $68 349 884
премьера (мир): 22 октября 2002, ...
премьера (РФ): 13 марта 2003, «Каро-Премьер»
релиз на DVD: 17 марта 2011, «CP-Digital», ...
возраст: 16+
Качество: BDRip
Формат: AVI
Видео кодек: XviD
Аудио кодек: AC3
Видео: Xvid 720x400 23.98fps 1843kbps
Аудио: Dolby AC3 48000Hz 6ch 448kbps

Скриншоты



Media info

Format : AVI
Format/Info : Audio Video Interleave
File size : 1.46 GiB
Duration : 1h 30mn
Overall bit rate : 2 301 Kbps
Movie name : Korabl-prizrak (2002) BDRip
Director : KalliostroV
Writing application : VirtualDubModRus 1.5.10.2 (build 2542/release)
Copyright : www.hqclub.net
Comment : 22.10.2009
Video
ID : 0
Format : MPEG-4 Visual
Format profile : Advanced [email protected]
Format settings, BVOP : 1
Format settings, QPel : No
Format settings, GMC : No warppoints
Format settings, Matrix : Default (MPEG)
Codec ID : XVID
Codec ID/Hint : XviD
Duration : 1h 30mn
Bit rate : 1 844 Kbps
Width : 720 pixels
Height : 400 pixels
Display aspect ratio : 16:9
Frame rate : 23.976 fps
Color space : YUV
Chroma subsampling : 4:2:0
Bit depth : 8 bits
Scan type : Progressive
Compression mode : Lossy
Bits/(Pixel*Frame) : 0.267
Stream size : 1.17 GiB (80%)
Writing library : XviD 1.2.1 (UTC 2008-12-04)
Audio
ID : 1
Format : AC-3
Format/Info : Audio Coding 3
Mode extension : CM (complete main)
Codec ID : 2000
Duration : 1h 30mn
Bit rate mode : Constant
Bit rate : 448 Kbps
Channel(s) : 6 channels
Channel positions : Front: L C R, Side: L R, LFE
Sampling rate : 48.0 KHz
Bit depth : 16 bits
Compression mode : Lossy
Stream size : 291 MiB (19%)
Alignment : Split accross interleaves
Interleave, duration : 42 ms (1.00 video frame)
Interleave, preload duration : 500 ms

Создавать темы 14-Апр-2013 16:27

[Профиль]  [ЛС] 

Lion31

Стаж: 6 лет 6 месяцев

Сообщений: 83

Симпатии: 2

bexruz_muxsinov1, Спасибо

Создавать темы 14-Апр-2013 16:53

[Профиль]  [ЛС] 

ulugbek_82

Стаж: 6 лет 6 месяцев

Сообщений: 34

1-й скрин ппс ))

Создавать темы 14-Апр-2013 17:11

[Профиль]  [ЛС] 

BOSYA

Стаж: 5 лет 4 месяца

Сообщений: 75

Симпатии: 1

1-й скрин ппс ))
Ооо ла это ШОКОЛАД

Создавать темы 14-Апр-2013 17:28

[Профиль]  [ЛС] 

Leagle

Стаж: 5 лет 2 месяца

Сообщений: 36

Эта шоколадка сама призрак..... Фильм супер!

Создавать темы 14-Апр-2013 18:37

[Профиль]  [ЛС] 

bexruz_muxsinov1 ®

Стаж: 4 года 9 месяцев

Сообщений: 18

Симпатии: 2

Эта шоколадка сама призрак..... Фильм супер!
да мне тоже очен понравился

Создавать темы 15-Апр-2013 13:19

[Профиль]  [ЛС] 

RIZVAN

Стаж: 4 года 6 месяцев

Сообщений: 11

bexruz_muxsinov1, помогите скачать корабль призрак спасибо!!!

Создавать темы 05-Янв-2014 18:06

[Профиль]  [ЛС] 

slayer18

Стаж: 4 года 9 месяцев

Сообщений: 9

встаньте на раздачу, пожалуйста

Создавать темы 21-Янв-2014 20:25

[Профиль]  [ЛС] 

Diego

Стаж: 3 года 6 месяцев

Сообщений: 1

ДАЙТЕ СКОРОСТЬ

Создавать темы 05-Фев-2014 23:13

[Профиль]  [ЛС] 
Показать сообщения:    
Ответить на тему

Текущее время: 18-Авг 08:13

Часовой пояс: UTC + 5



Вы не можете начинать темы
Вы не можете отвечать на сообщения
Вы не можете редактировать свои сообщения
Вы не можете удалять свои сообщения
Вы не можете голосовать в опросах
Вы не можете прикреплять файлы к сообщениям
Вы не можете скачивать файлы