Ян Дара: Начало / Jan Dara Pathommabot (2013) (M.L. Pundhevanop Dhewakul) [2013 г., драма, HDRip]

Ответить на тему
 

Amiko ®

Стаж: 4 года 8 месяцев

Сообщений: 41

Симпатии: 1

Ян Дара: Начало / Jan Dara Pathommabot (2013)
Год выпуска: 2013
Страна: Таиланд / Sahamongkol Film International
Жанр: драма
Продолжительность: 02:16:12
Озвучивание: Люительское (двухголосое) [Green Tea]
Режиссер: M.L. Pundhevanop Dhewakul
В ролях: Ratklao Amaradit, Kesarin Chaichalermpol, Savika Chaiyadej, Бонгкодж Кхонгмалай, Марио Морер, Sho Nishino, Chaiyapol Jullian
Описание: Это история о знаменитом археологе, историке и путешественнике по имени Ян Дара. Однажды, он натыкается на древние манускрипты, описывающие месторасположение колонии бежавших жрецов. По преданию, они спрятали там все знания, которые были накоплены их храмом на протяжении веков. Ян Дара незамедлительно отправляется в это опасное путешествие, оставив свою беременную жену. Он обещал вернуться через месяц, однако, от него нет никаких вестей. Тогда его коллега и лучший друг семьи решает отправиться вслед за ним, чтобы выяснить что произошло.
Качество: HDRip
Формат: AVI
Видео кодек: XviD
Аудио кодек: AC-3
Видео: 1953 kb/s, 720x304
Аудио: AC3, 192 kb/s (2 ch)

Скриншоты



Media Info

Complete name : d:\Пограммы\PG Porn\Yan.Dara.na4alo.2013.HDRip\Yan.Dara.na4alo.2013.HDRip.avi
Format : AVI
Format/Info : Audio Video Interleave
File size : 1.46 GiB
Duration : 2h 16mn
Overall bit rate : 1 536 Kbps
Writing application : VirtualDubMod 1.5.10.2 (build 2540/release)
Writing library : VirtualDubMod build 2540/release
Video
ID : 0
Format : MPEG-4 Visual
Format profile : Advanced [email protected]
Format settings, BVOP : 2
Format settings, QPel : No
Format settings, GMC : No warppoints
Format settings, Matrix : Default (MPEG)
Codec ID : XVID
Codec ID/Hint : XviD
Duration : 2h 16mn
Bit rate : 1 335 Kbps
Width : 720 pixels
Height : 304 pixels
Display aspect ratio : 2.35:1
Frame rate : 24.000 fps
Color space : YUV
Chroma subsampling : 4:2:0
Bit depth : 8 bits
Scan type : Progressive
Compression mode : Lossy
Bits/(Pixel*Frame) : 0.254
Stream size : 1.27 GiB (87%)
Writing library : XviD 1.2.1 (UTC 2008-12-04)
Audio
ID : 1
Format : AC-3
Format/Info : Audio Coding 3
Mode extension : CM (complete main)
Format settings, Endianness : Big
Codec ID : 2000
Duration : 2h 16mn
Bit rate mode : Constant
Bit rate : 192 Kbps
Channel(s) : 2 channels
Channel positions : Front: L R
Sampling rate : 48.0 KHz
Bit depth : 16 bits
Compression mode : Lossy
Stream size : 187 MiB (13%)
Alignment : Split accross interleaves
Interleave, duration : 42 ms (1.00 video frame)
Interleave, preload duration : 500 ms


Последний раз редактировалось: Amiko (2013-04-14 23:14), всего редактировалось 4 раз(а)

Создавать темы 14-Апр-2013 19:45

[Профиль]  [ЛС] 

Shnurok18

Стаж: 6 лет 11 месяцев

Сообщений: 111

Симпатии: 1

Дополни по шаблону тех данные о фильме и постер !!!И если не ошибаюсь по медия инфо
Format : AC-3
а не
Аудио кодек: MP3

Создавать темы 14-Апр-2013 20:24

[Профиль]  [ЛС] 

Amiko ®

Стаж: 4 года 8 месяцев

Сообщений: 41

Симпатии: 1

Скорость будет Низкая!! Сегодн а завтро будет нормальаня !!! Извените Зарание

Создавать темы 14-Апр-2013 20:57

[Профиль]  [ЛС] 

vitya9608

Стаж: 5 лет

Сообщений: 26

Симпатии: 1

Шапку исправьте
Ян Дара: Начало / Jan Dara Pathommabot (2013) (M.L. Pundhevanop Dhewakul) [2013 г., драма, BDRipHDRip]
исправьте постер слишком маленький и где тех. данные

_________________
Подпись отключена за нарушение правил форума

Создавать темы 14-Апр-2013 21:37

[Профиль]  [ЛС] 

StevenS1

Стаж: 5 лет 1 месяц

Сообщений: 36

перевод какой? одноголосный?

Создавать темы 14-Апр-2013 22:15

[Профиль]  [ЛС] 

Топик был перенесен из форума Фильмы за 2013 (новинки) в форум Азиатские фильмы

Mixer City

Создавать темы 15-Апр-2013 15:04

 

Adesh

Стаж: 5 лет 6 месяцев

Сообщений: 41

Симпатии: 1

Фильм хороший.....смотрел старую экранизацию снятую ещё в 80-е....фильм назывался Месть Ян Дары..

Создавать темы 22-Апр-2013 18:51

[Профиль]  [ЛС] 

farhaa

Стаж: 6 лет 9 месяцев

Сообщений: 167

Симпатии: 2

и где же тут Джеки Чан или Джет ЛИ

Создавать темы 30-Апр-2013 00:43

[Профиль]  [ЛС] 
Показать сообщения:    
Ответить на тему

Текущее время: 20-Ноя 05:29

Часовой пояс: UTC + 5



Вы не можете начинать темы
Вы не можете отвечать на сообщения
Вы не можете редактировать свои сообщения
Вы не можете удалять свои сообщения
Вы не можете голосовать в опросах
Вы не можете прикреплять файлы к сообщениям
Вы не можете скачивать файлы