Хародим. Ничего, кроме правды / Harodim. Nichts, als die Wahrheit (Пол Финелли / Paul Finelli) [2012, Австрия, Политический триллер, HDRip] VO

Ответить на тему
 

Suxrob89 ®

Стаж: 7 лет

Сообщений: 933

Симпатии: 564

Хародим. Ничего, кроме правды / Harodim. Nichts, als die Wahrheit- Страна: Австрия
Жанр: Политический триллер
Год выпуска: 2012
Продолжительность: 01:35:28-Перевод: Одноголосый закадровый
Cубтитры: нет-Режиссер: Пол Финелли / Paul Finelli-В ролях: Питер Фонда, Майкл Десанте, Трэвис Фиммел-Описание: Лазарус Фелл, бывший боец элитного отряда «Морские котики» оставляет всё: службу, карьеру, семью, чтобы отомстить за своего отца, погибшего 11 сентября 2001 года во Всемирном торговом центре. Через несколько лет напряженных поисков он находит и похищает того, кого все считали воплощением мирового Зла и главным организатором и вдохновителем этого теракта. Однако в то, что он рассказал, Лазарус Фелл поначалу отказывается верить…- -Тип релиза: HDRip [исх. BDRip 1080p]
Формат видео: AVI-Видео: 624x336 (1.86:1), 23.976 fps, XviD build 50, 954 kbps avg, 0.19 bit/pixel
Аудио: 48 kHz, MPEG Layer 3, 2 ch, 128.00 kbps avg [Russian_VO]-

MediaInfo

General
Complete name : E:\Мои раздачи\Harodim_[745]_RG_All_Films.avi
Format : AVI
Format/Info : Audio Video Interleave
File size : 746 MiB
Duration : 1h 35mn
Overall bit rate : 1 092 Kbps
Writing application : VirtualDubMod 1.5.10.3 | www.virtualdub-fr.org || (build 2550/release)
Writing library : VirtualDubMod build 2550/release
Video
ID : 0
Format : MPEG-4 Visual
Format profile : Advanced [email protected]
Format settings, BVOP : Yes
Format settings, QPel : No
Format settings, GMC : No warppoints
Format settings, Matrix : Custom
Codec ID : XVID
Codec ID/Hint : XviD
Duration : 1h 35mn
Bit rate : 955 Kbps
Width : 624 pixels
Height : 336 pixels
Display aspect ratio : 1.857
Frame rate : 23.976 fps
Color space : YUV
Chroma subsampling : 4:2:0
Bit depth : 8 bits
Scan type : Progressive
Compression mode : Lossy
Bits/(Pixel*Frame) : 0.190
Stream size : 652 MiB (87%)
Writing library : XviD 1.2.1 (UTC 2008-12-04)
Audio
ID : 1
Format : MPEG Audio
Format version : Version 1
Format profile : Layer 3
Codec ID : 55
Codec ID/Hint : MP3
Duration : 1h 35mn
Bit rate mode : Constant
Bit rate : 128 Kbps
Channel(s) : 2 channels
Sampling rate : 48.0 KHz
Compression mode : Lossy
Stream size : 87.4 MiB (12%)
Alignment : Aligned on interleaves
Interleave, duration : 42 ms (1.00 video frame)
Interleave, preload duration : 504 ms
Writing library : LAME3.98r
Encoding settings : -m s -V 4 -q 2 -lowpass 17 -b 128

Скриншот с названием фильма

Скриншоты



Создавать темы 15-Апр-2013 08:16

[Профиль]  [ЛС] 

Asadovdiyor

Стаж: 5 лет 7 месяцев

Сообщений: 192

кинопоиск 7.7 ИМДБ 3.9??? чото очень большая разница между ними будто 2 разных фильма опрашивали.... bw

Создавать темы 16-Апр-2013 16:30

[Профиль]  [ЛС] 
Показать сообщения:    
Ответить на тему

Текущее время: 19-Авг 20:06

Часовой пояс: UTC + 5



Вы не можете начинать темы
Вы не можете отвечать на сообщения
Вы не можете редактировать свои сообщения
Вы не можете удалять свои сообщения
Вы не можете голосовать в опросах
Вы не можете прикреплять файлы к сообщениям
Вы не можете скачивать файлы