Отверженные / Les Miserables (Том Хупер) [2012 г., Драма, мюзикл, мелодрама, экранизация, BDRip]

Ответить на тему
 

xasan777 ®

Стаж: 4 года 6 месяцев

Сообщений: 33

Симпатии: 6

Отверженные / Les Miserables
Год выпуска: 2012
Страна: Великобритания, Universal Pictures, Relativity Media, Working Title Films, Cameron Mackintosh
Жанр: Драма, мюзикл, мелодрама, экранизация
Продолжительность: 02:37:54
Перевод: Профессиональный (полное дублирование)
Режиссер: Том Хупер
В ролях: Хью Джекман, Расселл Кроу, Энн Хэтэуэй, Аманда Сайфред, Эдди Редмэйн, Хелена Бонем Картер, Саша Барон Коэн, Аарон Твейт, Саманта Баркс, Дэниэл Хаттлстоун, Изабелль Аллен, Наталья Энджел Уоллес, Кевин Корнуолл, Джозеф Алтин
Описание: Действие развивается в начале XIX столетия. Беглый каторжник Жан Вальжан, приговоренный к тюремному заключению, вынужден долгие годы скрываться от жестокого правосудия. Инспектор парижской полиции Жавер считает его поимку делом всей своей жизни. После смерти Фантины — женщины, за судьбу которой Жан Вальжан считал себя в ответе, — единственным близким ему человеком остается ее дочь Козетта. Ради счастья девушки Жан готов на все.
Доп. информация: бюджет $61 000 000
сборы в США $148 809 770
сборы в мире + $288 900 696 = $437 710 466
сборы в России $3 654 211
Качество: ВDRip (720p)
Формат: MKV
Видео кодек: AVC
Аудио кодек: AC3
Видео: MPEG-4 AVC, 5500 Кбит/с, 1280x694
Аудио: Русский (AC3, 6 ch, 384 Кбит/с), английский (DTS, 6 ch, 1510 Кбит/с)
Субтитры: Русские, английские

MediaInfo

Общее
Уникальный идентификатор : 238359153410175305153215649312396518667 (0xB3524D986E09E782BD3592E85BD7A50B)
Полное имя : D:Mои раздачиOtverzhennye.2012.BDRip.(720p).mkv
Формат : Matroska
Версия формата : Version 2
Размер файла : 8,16 Гбайт
Продолжительность : 2 ч. 37 м.
Общий поток : 7394 Кбит/сек
Дата кодирования : UTC 2013-04-13 10:10:01
Программа кодирования : mkvmerge v5.7.0 ('The Whirlwind') built on Aug 7 2012 14:11:40
Библиотека кодирования : libebml v1.2.3 + libmatroska v1.3.0
Видео
Идентификатор : 1
Формат : AVC
Формат/Информация : Advanced Video Codec
Профиль формата : [email protected]
Параметр CABAC формата : Да
Параметр ReFrames формата : 4 кадра
Идентификатор кодека : V_MPEG4/ISO/AVC
Продолжительность : 2 ч. 37 м.
Битрейт : 5500 Кбит/сек
Ширина : 1280 пикселей
Высота : 694 пикселя
Соотношение сторон : 1,85:1
Режим частоты кадров : Постоянный
Частота кадров : 23,976 кадра/сек
Цветовое пространство : YUV
Субдискретизация насыщенности : 4:2:0
Битовая глубина : 8 бит
Тип развёртки : Прогрессивная
Бит/(Пиксели*Кадры) : 0.258
Размер потока : 5,90 Гбайт (72%)
Заголовок : Les.Miserables.2012-CHD
Библиотека кодирования : x264 core 129 r2245 bc13772
Настройки программы : cabac=1 / ref=4 / deblock=1:-4:-4 / analyse=0x3:0x133 / me=umh / subme=11 / psy=1 / psy_rd=1.10:0.20 / mixed_ref=1 / me_range=48 / chroma_me=1 / trellis=2 / 8x8dct=1 / cqm=0 / deadzone=21,11 / fast_pskip=0 / chroma_qp_offset=-5 / threads=12 / lookahead_threads=2 / sliced_threads=0 / nr=0 / decimate=1 / interlaced=0 / bluray_compat=0 / constrained_intra=0 / bframes=8 / b_pyramid=2 / b_adapt=2 / b_bias=0 / direct=3 / weightb=1 / open_gop=0 / weightp=2 / keyint=250 / keyint_min=23 / scenecut=40 / intra_refresh=0 / rc=2pass / mbtree=0 / bitrate=5500 / ratetol=1.0 / qcomp=0.70 / qpmin=0 / qpmax=69 / qpstep=4 / cplxblur=20.0 / qblur=0.5 / ip_ratio=1.40 / pb_ratio=1.30 / aq=2:1.00
Язык : English
Default : Да
Forced : Нет
Аудио #1
Идентификатор : 2
Формат : AC-3
Формат/Информация : Audio Coding 3
Расширение режима : CM (complete main)
Параметр Endianness формата : Big
Идентификатор кодека : A_AC3
Продолжительность : 2 ч. 37 м.
Вид битрейта : Постоянный
Битрейт : 384 Кбит/сек
Каналы : 6 каналов
Расположение каналов : Front: L C R, Side: L R, LFE
Частота : 48,0 КГц
Битовая глубина : 16 бит
Метод сжатия : С потерями
Размер потока : 434 Мбайт (5%)
Язык : Russian
Default : Да
Forced : Да
Аудио #2
Идентификатор : 3
Формат : DTS
Формат/Информация : Digital Theater Systems
Идентификатор кодека : A_DTS
Продолжительность : 2 ч. 37 м.
Вид битрейта : Постоянный
Битрейт : 1510 Кбит/сек
Каналы : 6 каналов
Расположение каналов : Front: L C R, Side: L R, LFE
Частота : 48,0 КГц
Битовая глубина : 24 бит
Метод сжатия : С потерями
Размер потока : 1,67 Гбайт (20%)
Заголовок : English DTS 5.1 1509 kbps
Язык : English
Default : Нет
Forced : Нет
Текст #1
Идентификатор : 4
Формат : UTF-8
Идентификатор кодека : S_TEXT/UTF8
Идентификатор кодека/Информация : UTF-8 Plain Text
Язык : Russian
Default : Нет
Forced : Нет
Текст #2
Идентификатор : 5
Формат : UTF-8
Идентификатор кодека : S_TEXT/UTF8
Идентификатор кодека/Информация : UTF-8 Plain Text
Язык : English
Default : Нет
Forced : Нет

Скриншоты




Создавать темы 16-Апр-2013 20:06

[Профиль]  [ЛС] 

Топик был перенесен из форума HD-AVC в форум Зарубежное кино

Mixer City

Создавать темы 16-Апр-2013 21:44

 

Malika94

Стаж: 4 года 11 месяцев

Сообщений: 30

Потрясающий мюзикл! очень хорошая актерская подборка. сильные голоса. мне кажется, такой шедевр нужно смотреть в оригинале

Создавать темы 17-Апр-2013 07:52

[Профиль]  [ЛС] 

Malika94

Стаж: 4 года 11 месяцев

Сообщений: 30

скорости прибавьте плиз!

Создавать темы 17-Апр-2013 10:52

[Профиль]  [ЛС] 

Shohabbos

Стаж: 5 лет 4 месяца

Сообщений: 31

Симпатии: 10

А тут полный перевод или те места где поют песенки с субтитрами как остальные?

Создавать темы 01-Май-2013 19:19

[Профиль]  [ЛС] 

Ильфат

Стаж: 4 года 7 месяцев

Сообщений: 1

Ая-яй-яй. русской дорожки нет.

Создавать темы 22-Июл-2013 14:02

[Профиль]  [ЛС] 
Показать сообщения:    
Ответить на тему

Текущее время: 22-Сен 09:37

Часовой пояс: UTC + 5



Вы не можете начинать темы
Вы не можете отвечать на сообщения
Вы не можете редактировать свои сообщения
Вы не можете удалять свои сообщения
Вы не можете голосовать в опросах
Вы не можете прикреплять файлы к сообщениям
Вы не можете скачивать файлы