Рататуй / Ratatouille (Брэд Бёрд) [2007 г., комедия, DVDRip]

Ответить на тему
 

apachi_uz21 ®

Стаж: 5 лет 5 месяцев

Сообщений: 30

Симпатии: 6

Рататуй / Ratatouille
Год выпуска: 2007
Жанр: комедия
Продолжительность: 01:51:07
Перевод: английский (оригинал)
Режиссер: Брэд Бёрд
В ролях: Паттон Освальд, Иэн Холм, Лу Романо
Описание: Крысёныш Реми живёт со своей семьей на чердаке сельского домика. Особенностью Реми является чрезвычайно тонкое обоняние и чувство вкуса. Телепередача о книге лучшего повара Франции Гюсто открывает перед ним мир кулинарии. Увы, неудачный кулинарный опыт приводит к тому, что хозяйка дома узнаёт о существовании крысиной семьи и прогоняет её. Реми успевает увидеть, как по телевизору передают сообщение, что Гюсто погиб. Преследуемый вооружённой старушкой, Реми попадает в водосток и теряет своих близких. Но тут к нему на помощь приходит дух Гюсто и ободряет его.
Качество: DVDRip
Формат: AVI
Видео кодек: DivX
Аудио кодек: MP3
Видео: DivX 5, 664x274, 23 fps, 762 kbps
Аудио: MP3, 48 KHz, 112 kbps

Media info

General
Complete name : Ratatouille.avi
Format : AVI
Format/Info : Audio Video Interleave
File size : 702 MiB
Duration : 1h 51mn
Overall bit rate : 883 Kbps
Writing application : VirtualDubMod 1.5.10.1 (build 2366/release)
Writing library : VirtualDubMod build 2366/release
Video #0
ID : 0
Format : MPEG-4 Visual
Format profile : Advanced [email protected]
Format settings, BVOP : 2
Format settings, QPel : No
Format settings, GMC : No warppoints
Format settings, Matrix : Default (H.263)
Codec ID : DX50
Codec ID/Hint : DivX 5
Duration : 1h 51mn
Bit rate : 762 Kbps
Width : 664 pixels
Height : 274 pixels
Display aspect ratio : 2.40:1
Frame rate : 23.976 fps
Color space : YUV
Chroma subsampling : 4:2:0
Bit depth : 8 bits
Scan type : Progressive
Compression mode : Lossy
Bits/(Pixel*Frame) : 0.175
Stream size : 606 MiB (86%)
Writing library : XviD 1.0.3 (UTC 2004-12-20)
Audio #1
ID : 1
Format : MPEG Audio
Format version : Version 1
Format profile : Layer 3
Codec ID : 55
Codec ID/Hint : MP3
Duration : 1h 51mn
Bit rate mode : Constant
Bit rate : 112 Kbps
Channel(s) : 2 channels
Sampling rate : 48.0 KHz
Compression mode : Lossy
Delay relative to video : 2s 472ms
Stream size : 89.0 MiB (13%)
Alignment : Split accross interleaves
Interleave, duration : 42 ms (1.00 video frame)
Interleave, preload duration : 504 ms

Скриншоты





Последний раз редактировалось: apachi_uz21 (2013-04-16 23:38), всего редактировалось 1 раз

Создавать темы 16-Апр-2013 22:46

[Профиль]  [ЛС] 

abdushka

Стаж: 5 лет 9 месяцев

Сообщений: 9

Вот и Рататуй! Спасибо apachi_uz21, !

Создавать темы 17-Апр-2013 15:40

[Профиль]  [ЛС] 

Zofa

Стаж: 7 лет 1 месяц

Сообщений: 16

Симпатии: 1

встаньте на раздачу люди,очь хочется посмотреть

Создавать темы 07-Авг-2013 22:30

[Профиль]  [ЛС] 

anikosik

Стаж: 5 лет 8 месяцев

Сообщений: 24

спасибо) четкий мульт

Создавать темы 31-Янв-2014 13:42

[Профиль]  [ЛС] 

Rejabboy

Стаж: 6 лет 5 месяцев

Сообщений: 7

apachi_uz21, Ничего не могу скачать с торрент-трекера.

Создавать темы 11-Мар-2014 18:41

[Профиль]  [ЛС] 

Jovohir Clever

Стаж: 5 лет 5 месяцев

Сообщений: 7

встаньте на раздачу люди,очь хочется посмотреть

Создавать темы 13-Ноя-2014 09:37

[Профиль]  [ЛС] 
Показать сообщения:    
Ответить на тему

Текущее время: 18-Ноя 17:20

Часовой пояс: UTC + 5



Вы не можете начинать темы
Вы не можете отвечать на сообщения
Вы не можете редактировать свои сообщения
Вы не можете удалять свои сообщения
Вы не можете голосовать в опросах
Вы не можете прикреплять файлы к сообщениям
Вы не можете скачивать файлы