Невозможное / Lo imposible (Хуан Антонио Байона) [2012 г., боевик, триллер, драма, HDRip] Лицензия

Ответить на тему
 

Suxrob89 ®

Стаж: 7 лет 2 месяца

Сообщений: 933

Симпатии: 564

-Невозможное / Lo imposible- Год выпуска: 2012
Страна: Испания
Жанр: боевик, триллер, драма
Продолжительность: 01:53:41
Перевод: Дублированный | Лицензия-Режиссер: Хуан Антонио Байона-В ролях: Наоми Уоттс, Юэн МакГрегор, Том Холлэнд, Сэмюэл Джослин, Оакли Пендергаст, Марта Этура, Шенке Мёринг, Джеральдин Чаплин, Плой Хиндачоте, Жомжаои Сэ-Лим-Описание: Фильм рассказывает о европейской семье, проводящей отпуск в экзотической стране Юго-Восточной Азии – Таиланде с тремя детьми. Однако вскоре спокойствие и мир сменит хаос и ужас. В один солнечный декабрьский день, когда семья Генри и Марии проводили время в отеле, наблюдая, как дети наслаждаются теплой водой бассейна, они вдруг услышали странный шум, исходящий из глубины океана. Это и было началом трагедии. Не успев схватить детей, семья оказывается под огромным объемом воды и только чудо помогает им спастись...- -Детям до 13 лет просмотр не желателен-Качество: HDRip
Формат: AVI
Видео кодек: XviD
Аудио кодек: AC3
Видео: 1682 kb/s, 720x304
Аудио: Russian / English: AC3, 448 kb/s (6 ch)
Размер: 2,100 MB-

Доп. Информация

Сценарий: Серхио Х. Санчес / Sergio G. Sánchez, Мария Белон / María Belón
Продюсер: Белен Атьенца / Belén Atienza, Альваро Аугустин / Álvaro Augustín, Жислен Баруа / Ghislain Barrois, Энрике Лопез Лавин / Enrique López Lavigne, Сандра Эрмида / Sandra Hermida
Оператор: Оскар Фаура / Óscar Faura
Композитор: Фернандо Веласкес / Fernando Velázquez
Бюджет: €30 000 000
Сборы в США: $18 996 755
Сборы в России: $1 771 465
Сборы в мире: $172 454 266
Мировая премьера: 9 сентября 2012
Релиз на DVD: 30 апреля 2013, «Флагман-Трейд»
Релиз на Blu-ray: 30 апреля 2013, «Флагман-Трейд»

Знаете ли Вы, что...

  • Многие актеры массовки - это люди, выжившие после цунами.
  • Наоми Уоттс и Юэн МакГрегор ранее уже играли персонажей, состоящих в отношениях, в фильме «Останься» (2005).
  • На кинофестивале в Торонто в 2012 году герои фильма встретились со своими прототипами из реальной жизни - семьей, которая выжила после цунами, на чьей истории и основан фильм.
  • Этот фильм был одним из последних фильмов испанской студии «Ciudad de la Luz» (City of Light). В октябре 2012 года она объявила о своем закрытии.
  • Фильм основан на реальной истории бывшего доктора из Испании Марии Белён Альварез, которая в декабре 2004 года отдыхала в
  • Таиланде с мужем Энрике (Кике) и сыновьями Лукасом (12 лет), Симоном (8 лет) и Томасом (5 лет). Мария лично выбрала Наоми Уоттс на главную роль, хотя изображённая в фильме семья Беннет является английской.
  • По словам Наоми Уоттс продюсеры фильма услышали интервью по испанскому радио, в котором семья рассказывала свою историю о том, как они пережили цунами, и решили снять по ней фильм.
  • Когда Даниэль встречает своего отца, тот обращается к нему по-шведски, произнося его имя как «Йохан». Настоящее имя актера сыгравшего роль Даниэля - Йохан Сандберг, а актер, игравший его отца, это его настоящий отец - Жан Роланд Сандберг.
  • Когда Лукас разговаривает со шведом, который отчаянно пытается найти своего сына, он берет ручку и начинает писать имя мальчика левой рукой, но в следующем кадре он пишет его уже правой рукой.
  • Media info

    G:\Nevozmojnoe.2012.D.HDRip.avi
    General
    Complete name : G:\Nevozmojnoe.2012.D.HDRip.avi
    Format : AVI
    Format/Info : Audio Video Interleave
    Format profile : OpenDML
    File size : 2.06 GiB
    Duration : 1h 53mn
    Overall bit rate : 2 596 Kbps
    Writing application : VirtualDubMod 1.5.10.2 (build 2542/release)
    Writing library : VirtualDubMod build 2542/release
    Video #0
    ID : 0
    Format : MPEG-4 Visual
    Format profile : Advanced [email protected]
    Format settings, BVOP : Yes
    Format settings, QPel : No
    Format settings, GMC : No warppoints
    Format settings, Matrix : Default (MPEG)
    Muxing mode : Packed bitstream
    Codec ID : XVID
    Codec ID/Hint : XviD
    Duration : 1h 53mn
    Bit rate : 1 682 Kbps
    Width : 720 pixels
    Height : 304 pixels
    Display aspect ratio : 2.35:1
    Frame rate : 24.000 fps
    Color space : YUV
    Chroma subsampling : 4:2:0
    Bit depth : 8 bits
    Scan type : Progressive
    Bits/(Pixel*Frame) : 0.320
    Stream size : 1.33 GiB (65%)
    Writing library : XviD 1.2.1 (UTC 2008-12-04)
    Audio #1
    ID : 1
    Format : AC-3
    Format/Info : Audio Coding 3
    Mode extension : CM (complete main)
    Codec ID : 2000
    Duration : 1h 53mn
    Bit rate mode : Constant
    Bit rate : 448 Kbps
    Channel(s) : 6 channels
    Channel positions : Front: L C R, Side: L R, LFE
    Sampling rate : 48.0 KHz
    Bit depth : 16 bits
    Video delay : 1s 100ms
    Stream size : 364 MiB (17%)
    Alignment : Split accross interleaves
    Interleave, duration : 42 ms (1.00 video frame)
    Interleave, preload duration : 500 ms
    Audio #2
    ID : 2
    Format : AC-3
    Format/Info : Audio Coding 3
    Mode extension : CM (complete main)
    Codec ID : 2000
    Duration : 1h 53mn
    Bit rate mode : Constant
    Bit rate : 448 Kbps
    Channel(s) : 6 channels
    Channel positions : Front: L C R, Side: L R, LFE
    Sampling rate : 48.0 KHz
    Bit depth : 16 bits
    Stream size : 364 MiB (17%)
    Alignment : Split accross interleaves
    Interleave, duration : 42 ms (1.00 video frame)
    Interleave, preload duration : 500 ms

    Скриншот с названием фильма

    Скриншоты



    Последний раз редактировалось: Suxrob89 (2013-05-19 06:25), всего редактировалось 3 раз(а)

    Создавать темы 17-Апр-2013 00:46

    [Профиль]  [ЛС] 

    axxa

    Стаж: 6 лет 11 месяцев

    Сообщений: 63

    Симпатии: 2

    тв3

    Создавать темы 21-Апр-2013 14:00

    [Профиль]  [ЛС] 

    schweppes

    Стаж: 4 года 9 месяцев

    Сообщений: 72

    "... момент, когда от счастья запирает дыхание."
    Такие истории очеловечивают ...

    Создавать темы 22-Апр-2013 00:33

    [Профиль]  [ЛС] 

    skyrocker

    Стаж: 5 лет 7 месяцев

    Сообщений: 96

    Симпатии: 3

    Тяжело было смотреть этот фильм..

    Создавать темы 22-Апр-2013 00:43

    [Профиль]  [ЛС] 

    Sunlover

    Стаж: 4 года 6 месяцев

    Сообщений: 13

    фильм хорош, смотрите

    Создавать темы 05-Май-2013 11:28

    [Профиль]  [ЛС] 

    Baxtboy

    Стаж: 5 лет 5 месяцев

    Сообщений: 26

    Симпатии: 6

    Фильм хороший. Держит в напряжении до конца... Настоящая драма. Актеры очень классно исполнили свои роли.

    Создавать темы 06-Май-2013 12:10

    [Профиль]  [ЛС] 

    nokiia

    Стаж: 6 лет 5 месяцев

    Сообщений: 52

    Симпатии: 1

    тв3
    твой коммент тв3

    Создавать темы 08-Май-2013 15:56

    [Профиль]  [ЛС] 

    Samsung_TAB

    Стаж: 4 года 8 месяцев

    Сообщений: 11

    Симпатии: 1

    Фильм супер!!! Рекомендую всем посмотреть! АААшшш на душе туго становится...

    Создавать темы 16-Май-2013 15:33

    [Профиль]  [ЛС] 

    Lyoman

    Стаж: 5 лет 9 месяцев

    Сообщений: 77

    Симпатии: 3

    так какой это боевик -КАТОСТРОФА

    Создавать темы 21-Май-2013 08:16

    [Профиль]  [ЛС] 

    a(R)chi

    Стаж: 4 года 9 месяцев

    Сообщений: 309

    Симпатии: 12

    чем то смахивает на ЖДИ МЕНЯ!

    _________________
    Подпись отключена за нарушение правил форума

    Создавать темы 21-Май-2013 14:05

    [Профиль]  [ЛС] 

    Magister

    Стаж: 5 лет 9 месяцев

    Сообщений: 14

    Симпатии: 1

    эйй народ будте добри дайте скораст немнога остался фыльм очен харошый смотрет хотел ))

    Создавать темы 25-Июл-2014 08:05

    [Профиль]  [ЛС] 

    RIZZI_666

    Стаж: 6 лет 8 месяцев

    Сообщений: 5

    Народ, добавьте скорости плиз очень хочу кино посмотреть

    Создавать темы 13-Авг-2014 14:36

    [Профиль]  [ЛС] 

    RIZZI_666

    Стаж: 6 лет 8 месяцев

    Сообщений: 5

    Плиз дораздайте 17% уже неделю 2гб качаю...

    Создавать темы 15-Авг-2014 11:12

    [Профиль]  [ЛС] 
    Показать сообщения:    
    Ответить на тему

    Текущее время: 18-Окт 01:48

    Часовой пояс: UTC + 5



    Вы не можете начинать темы
    Вы не можете отвечать на сообщения
    Вы не можете редактировать свои сообщения
    Вы не можете удалять свои сообщения
    Вы не можете голосовать в опросах
    Вы не можете прикреплять файлы к сообщениям
    Вы не можете скачивать файлы