Темный поток / Dark Feed (Майкл Расмуссен / Michael Rasmussen, Шон Расмуссен / Shawn Rasmussen) [2013, США, Ужасы, HDRip] VO [den904]

Ответить на тему
 

Suxrob89 ®

Стаж: 7 лет 3 месяца

Сообщений: 933

Симпатии: 564

-Темный поток / Dark Feed- Страна: США
Студия: Rasmussen Brothers Productions
Жанр: Ужасы
Год выпуска: 2013
Продолжительность: 01:25:57
Перевод: Одноголосый закадровый [den904]
Cубтитры: нет
Оригинальная аудиодорожка: нет-Режиссер: Майкл Расмуссен / Michael Rasmussen, Шон Расмуссен / Shawn Rasmussen-В ролях: Эвалена Мари, Дэйна Казинс, Тори Наджент, Ребекка Уитехёрст, Майкл Скотт Аллен, Andy Rudick, Джейсон Бобьен, Джессика Лорен Напье, Джонатан Томсон, Ивэн Сэндерсон, Hardy Winburn, Бри Элрод-Описание: Съемочная группа отправляется в заброшенную психиатрическую больницу с темным прошлым, чтобы снять низкобюджетный фильм ужасов. Они и не подозревали, насколько дорого в итоге им придётся заплатить…-Качество видео: HDRip
Формат видео: AVI
Видео: 656x368, 23.976 fps, ~1066 kbps
Звук: MP3, 2 ch, ~128.00 kbps- -

MediaInfo

G:\Temnyj.potok.2013.HDRip.745mb.avi
General
Complete name : G:\Temnyj.potok.2013.HDRip.745mb.avi
Format : AVI
Format/Info : Audio Video Interleave
File size : 741 MiB
Duration : 1h 25mn
Overall bit rate : 1 204 Kbps
Writing application : VirtualDubMod 1.5.10.3 | www.virtualdub-fr.org || (build 2550/release)
Writing library : VirtualDubMod build 2550/release
Video #0
ID : 0
Format : MPEG-4 Visual
Format profile : Advanced [email protected]
Format settings, BVOP : Yes
Format settings, QPel : No
Format settings, GMC : No warppoints
Format settings, Matrix : Default (MPEG)
Codec ID : XVID
Codec ID/Hint : XviD
Duration : 1h 25mn
Bit rate : 1 067 Kbps
Width : 656 pixels
Height : 368 pixels
Display aspect ratio : 16:9
Frame rate : 23.976 fps
Color space : YUV
Chroma subsampling : 4:2:0
Bit depth : 8 bits
Scan type : Progressive
Bits/(Pixel*Frame) : 0.184
Stream size : 656 MiB (89%)
Writing library : XviD 1.2.1 (UTC 2008-12-04)
Audio #1
ID : 1
Format : MPEG Audio
Format version : Version 1
Format profile : Layer 3
Codec ID : 55
Codec ID/Hint : MP3
Duration : 1h 25mn
Bit rate mode : Constant
Bit rate : 128 Kbps
Channel(s) : 2 channels
Sampling rate : 48.0 KHz
Stream size : 78.7 MiB (11%)
Alignment : Aligned on interleaves
Interleave, duration : 42 ms (1.00 video frame)
Interleave, preload duration : 504 ms
Writing library : LAME3.98r
Encoding settings : -m s -V 4 -q 2 -lowpass 17 -b 128

Скриншот c названием фильма

Скриншоты

Создавать темы 18-Апр-2013 08:45

[Профиль]  [ЛС] 

arslan-mukatov

Стаж: 5 лет 9 месяцев

Сообщений: 74

раздавате ктонибуть релиз!??? скорости нет совсем.......?

Создавать темы 20-Апр-2013 00:58

[Профиль]  [ЛС] 

Senat

Стаж: 6 лет 9 месяцев

Сообщений: 251

у меня тариф Старт1 вот уже 3-день скорость скачка снизила 5-10кб/с. у кого еще такая проблема

Создавать темы 20-Апр-2013 22:02

[Профиль]  [ЛС] 

Tiger Fors

Стаж: 5 лет 7 месяцев

Сообщений: 19

у меня Старт 1 максимум качаю по 50 кб/с ваще уродство какоето ))

Создавать темы 21-Апр-2013 00:33

[Профиль]  [ЛС] 

Apollon

Стаж: 6 лет 7 месяцев

Сообщений: 137

Симпатии: 7

Съемочная группа отправляется в заброшенную психиатрическую больницу с темным прошлым, чтобы снять низкобюджетный фильм ужасов. Они и не подозревали, насколько дорого в итоге им придётся заплатить…
Сценарий своровали с фильма "Искатели могил 2 ". Лол, на что только не идут эти бездарные режиссеры, лишь бы бабки скосить.
у меня Старт 1 максимум качаю по 50 кб/с ваще уродство какоето ))
У многих такая проблема. Зона тас-икс упала в плане скорости, даже у других провайдеров.

Создавать темы 21-Апр-2013 11:37

[Профиль]  [ЛС] 

tapo4egg

Стаж: 4 года 9 месяцев

Сообщений: 2

смотрел на подобие такого фильма)
ток не эти) Искатели могил , Искатели могил 2.
тоже про псих.больницу)

Создавать темы 21-Апр-2013 12:27

[Профиль]  [ЛС] 

Senat

Стаж: 6 лет 9 месяцев

Сообщений: 251

почему все торрент сайта скорост скачка урезено? ранше скачал 150-215кб/с а сейчас 40-50кб/с эта проблема только для тариф Старт1 или другой тарифном плане тоже тсамый

Создавать темы 21-Апр-2013 12:34

[Профиль]  [ЛС] 

deepclick

Стаж: 4 года 9 месяцев

Сообщений: 12

качаю на 210 кб/с ни каких проблем нет !

Создавать темы 26-Апр-2013 17:44

[Профиль]  [ЛС] 

Senat

Стаж: 6 лет 9 месяцев

Сообщений: 251

качаю на 210 кб/с ни каких проблем нет !
у тебя тариф какой?

Создавать темы 26-Апр-2013 18:27

[Профиль]  [ЛС] 

ll4ik

Стаж: 5 лет 6 месяцев

Сообщений: 50

Симпатии: 3

У меня тоже та же фигня, мой провайдер сохо, качает максимум 50-60 кб/с. Понимаю этот вопрос вообще излишный и не в тему, но плз скажите, как фильм?

Создавать темы 26-Апр-2013 21:47

[Профиль]  [ЛС] 
Показать сообщения:    
Ответить на тему

Текущее время: 20-Ноя 18:54

Часовой пояс: UTC + 5



Вы не можете начинать темы
Вы не можете отвечать на сообщения
Вы не можете редактировать свои сообщения
Вы не можете удалять свои сообщения
Вы не можете голосовать в опросах
Вы не можете прикреплять файлы к сообщениям
Вы не можете скачивать файлы