Родительский беспредел / Parental Guidance (Энди Фикмен / Andy Fickman) [2012, США, комедия, семейный, HDRip] [Лицензия]

Ответить на тему
 

Suxrob89 ®

Стаж: 7 лет 2 месяца

Сообщений: 933

Симпатии: 564

-Родительский беспредел / Parental Guidance- Страна: США
Жанр: комедия, семейный
Год выпуска: 2012
Продолжительность: 01:44:38
Перевод: Профессиональный (дублированный)[Лицензия]
Cубтитры: нет
Оригинальная аудиодорожка: английский-Режиссер: Энди Фикмен / Andy Fickman-В ролях: Билли Кристал, Бетт Мидлер, Мариса Томей, Том Эверетт Скотт, Бэйли Мэдисон, Джошуа Раш, Рода Гриффис-Описание: Когда Элис оставляет своих отпрысков на попечение родителей, те рады и счастливы: наконец-то они смогут посвятить внукам больше времени. Но совсем скоро Арти и Диана понимают, что постоянные школьные занятия и жизнь по строгому расписанию — это совсем не то, что нужно детям. Чтобы вернуть своим кровинушкам детство, «старая гвардия» вынуждена прибегнуть к нестандартным методам воспитания и использовать неожиданную тактику…- -Качество видео: HDRip
Формат видео: AVI
Видео: 720x384 (2.37:1), 24 fps, XviD MPEG-4 ~1907 kbps avg, 0.32 bit/pixel
Аудио: Russian / English: AC3, 448 kb/s (6 ch)

Media info

G:\Roditelskij.bespredel.2012.D.HDRip.GTDW.avi
General
Complete name : G:\Roditelskij.bespredel.2012.D.HDRip.GTDW.avi
Format : AVI
Format/Info : Audio Video Interleave
Format profile : OpenDML
File size : 2.05 GiB
Duration : 1h 44mn
Overall bit rate : 2 811 Kbps
Movie name : Roditelskij.bespredel.2012.D.HDRip.IRONCLUB
Director : IRONCLUB
Genre : Comedy
Writing application : VirtualDubMod 1.5.10.2 (build 2540/release)
Original source form/Name : Movie
Copyright : http://ironclub.tv/
Video #0
ID : 0
Format : MPEG-4 Visual
Format profile : Advanced [email protected]
Format settings, BVOP : Yes
Format settings, QPel : No
Format settings, GMC : No warppoints
Format settings, Matrix : Custom
Codec ID : XVID
Codec ID/Hint : XviD
Duration : 1h 44mn
Bit rate : 1 896 Kbps
Width : 720 pixels
Height : 384 pixels
Display aspect ratio : 1.875
Frame rate : 23.976 fps
Color space : YUV
Chroma subsampling : 4:2:0
Bit depth : 8 bits
Scan type : Progressive
Bits/(Pixel*Frame) : 0.286
Stream size : 1.39 GiB (67%)
Writing library : XviD 1.2.1 (UTC 2008-12-04)
Audio #1
ID : 1
Format : AC-3
Format/Info : Audio Coding 3
Mode extension : CM (complete main)
Codec ID : 2000
Duration : 1h 44mn
Bit rate mode : Constant
Bit rate : 448 Kbps
Channel(s) : 6 channels
Channel positions : Front: L C R, Side: L R, LFE
Sampling rate : 48.0 KHz
Bit depth : 16 bits
Stream size : 335 MiB (16%)
Alignment : Split accross interleaves
Interleave, duration : 42 ms (1.00 video frame)
Interleave, preload duration : 500 ms
Audio #2
ID : 2
Format : AC-3
Format/Info : Audio Coding 3
Mode extension : CM (complete main)
Codec ID : 2000
Duration : 1h 44mn
Bit rate mode : Constant
Bit rate : 448 Kbps
Channel(s) : 6 channels
Channel positions : Front: L C R, Side: L R, LFE
Sampling rate : 48.0 KHz
Bit depth : 16 bits
Stream size : 335 MiB (16%)
Alignment : Split accross interleaves
Interleave, duration : 42 ms (1.00 video frame)
Interleave, preload duration : 500 ms

Скриншот c названием фильма

Скриншоты



Последний раз редактировалось: Suxrob89 (2013-05-19 06:23), всего редактировалось 2 раз(а)

Создавать темы 19-Апр-2013 07:18

[Профиль]  [ЛС] 

alex_anis

Стаж: 4 года 8 месяцев

Сообщений: 60

Симпатии: 1

Фильм хорош. С удовольствием всей семьёй посмотрели!

Создавать темы 24-Апр-2013 16:34

[Профиль]  [ЛС] 
Показать сообщения:    
Ответить на тему

Текущее время: 23-Окт 13:09

Часовой пояс: UTC + 5



Вы не можете начинать темы
Вы не можете отвечать на сообщения
Вы не можете редактировать свои сообщения
Вы не можете удалять свои сообщения
Вы не можете голосовать в опросах
Вы не можете прикреплять файлы к сообщениям
Вы не можете скачивать файлы