Тайна перевала Дятлова / The Dyatlov Pass Incident (Ренни Харлин / Renny Harlin) [2013 г., триллер, ужасы, фантастика, BDRip][Лицензия]

Страницы :  1, 2, 3, 4, 5, 6  След.

Ответить на тему
 

Suxrob89 ®

Стаж: 7 лет 4 месяца

Сообщений: 933

Симпатии: 564

-Тайна перевала Дятлова / The Dyatlov Pass Incident- Год выпуска: 2013
Страна: Россия, США / Aldamisa Entertainment, K. JAM Media, Future Films
Жанр: триллер, ужасы, фантастика
Продолжительность: 01:40:24
Перевод: Профессиональный (многоголосый закадровый) [Лицензия]
Режиссер: Ренни Харлин / Renny Harlin-В ролях: Холли Госс, Мэтт Стокоу, Люк Олбрайт, Райан Хоули, Джемма Аткинсон, Николай Бутенин, Ричард Рейд, Анастасия Бурдина, Валерия Федорович, Нелли Нилсен-Описание: Сюжет фильма основан на реальных событиях, произошедших в 1959-м году. В 2012-м году группа американских студентов, получив грант, отправляется на уральские горы, следуя тем же маршрутом, что и группа Дятлова, чтобы попытаться восстановить картину и разгадать причину таинственной, мистической и до сих пор не разгаданной гибели советских лыжников.- -Дата мировой премьеры: 28 февраля 2013
Дата российской премьеры: 28 февраля 2013, «Двадцатый Век Фокс СНГ», «A Company»
Дата выхода DVD релиза: 22 апреля 2013, «Новый Диск»
Дата выхода Blu-Ray релиза: 22 апреля 2013, «Новый Диск»-Качество: BDRip
Формат: AVI
Видео кодек: XviD
Аудио кодек: AC3 5.1
Видео: 720x400, ~1622 Kb/s
Аудио: AC3 5.1, 448 Кбит/сек-

Media info

G:\The Dyatlov Pass Incident.2013.P.BDRip.avi
General
Complete name : G:\The Dyatlov Pass Incident.2013.P.BDRip.avi
Format : AVI
Format/Info : Audio Video Interleave
File size : 1.46 GiB
Duration : 1h 40mn
Overall bit rate : 2 080 Kbps
Movie name : Tajna.perevala.Djatlova.2013.P.BDRip.IRONCLUB
Director : IRONCLUB
Genre : Thriller
Writing application : VirtualDubMod 1.5.10.3 | www.virtualdub-fr.org || (build 2550/release)
Original source form/Name : Movie
Copyright : http://ironclub.tv/
Video #0
ID : 0
Format : MPEG-4 Visual
Format profile : Advanced [email protected]
Format settings, BVOP : Yes
Format settings, QPel : No
Format settings, GMC : No warppoints
Format settings, Matrix : Custom
Codec ID : XVID
Codec ID/Hint : XviD
Duration : 1h 40mn
Bit rate : 1 622 Kbps
Width : 720 pixels
Height : 400 pixels
Display aspect ratio : 16:9
Frame rate : 24.000 fps
Color space : YUV
Chroma subsampling : 4:2:0
Bit depth : 8 bits
Scan type : Progressive
Bits/(Pixel*Frame) : 0.235
Stream size : 1.14 GiB (78%)
Writing library : XviD 1.2.1 (UTC 2008-12-04)
Audio #1
ID : 1
Format : AC-3
Format/Info : Audio Coding 3
Mode extension : CM (complete main)
Codec ID : 2000
Duration : 1h 40mn
Bit rate mode : Constant
Bit rate : 448 Kbps
Channel(s) : 6 channels
Channel positions : Front: L C R, Side: L R, LFE
Sampling rate : 48.0 KHz
Bit depth : 16 bits
Stream size : 322 MiB (22%)
Alignment : Split accross interleaves
Interleave, duration : 42 ms (1.00 video frame)
Interleave, preload duration : 500 ms

Скриншоты



Последний раз редактировалось: Suxrob89 (2013-05-16 15:00), всего редактировалось 2 раз(а)

Создавать темы 19-Апр-2013 10:32

[Профиль]  [ЛС] 

Lion31

Стаж: 6 лет 10 месяцев

Сообщений: 83

Симпатии: 2

Suxrob89, спасибо

Создавать темы 19-Апр-2013 10:56

[Профиль]  [ЛС] 

exciter

Стаж: 7 лет 5 месяцев

Сообщений: 158

Симпатии: 2

Спасибо!!!!!!

Создавать темы 19-Апр-2013 13:20

[Профиль]  [ЛС] 

shoxito

Стаж: 5 лет 11 месяцев

Сообщений: 3

please, дайте скорость

Создавать темы 19-Апр-2013 15:49

[Профиль]  [ЛС] 

nikita15

Стаж: 5 лет 10 месяцев

Сообщений: 33

кто скачал.фильм хороший,стоит качать????

Создавать темы 19-Апр-2013 16:28

[Профиль]  [ЛС] 

Valov

Стаж: 4 года 9 месяцев

Сообщений: 1

nikita15, 6 из 10

Создавать темы 19-Апр-2013 17:57

[Профиль]  [ЛС] 

Suxrob89 ®

Стаж: 7 лет 4 месяца

Сообщений: 933

Симпатии: 564

Фильм посмотрел 7 из 10

Создавать темы 19-Апр-2013 18:13

[Профиль]  [ЛС] 

Атабек.Д

Стаж: 4 года 11 месяцев

Сообщений: 7

Давно ждал) спс за релиз
не подскажите какой фильм можно еще посмотреть?

Создавать темы 19-Апр-2013 18:19

[Профиль]  [ЛС] 

Nana

Стаж: 7 лет 3 месяца

Сообщений: 22

Давно ждал) спс за релиз
не подскажите какой фильм можно еще посмотреть?
С Тематикой о Дятловцах?

Создавать темы 19-Апр-2013 19:32

[Профиль]  [ЛС] 

laziz1888

Стаж: 5 лет 2 месяца

Сообщений: 31

Симпатии: 3

бросок кобры в качестве когда будет

Создавать темы 19-Апр-2013 21:17

[Профиль]  [ЛС] 

Атабек.Д

Стаж: 4 года 11 месяцев

Сообщений: 7

Nana,
да что в этом роде

Создавать темы 19-Апр-2013 21:55

[Профиль]  [ЛС] 

Атабек.Д

Стаж: 4 года 11 месяцев

Сообщений: 7

и кстати что за я раздаю со скоростью 100 кб/с (конечно не много) но качаю со скоростью 7-10 кб/с


Последний раз редактировалось: Атабек.Д (2013-04-20 19:16), всего редактировалось 2 раз(а)

Создавать темы 19-Апр-2013 21:57

[Профиль]  [ЛС] 

Nana

Стаж: 7 лет 3 месяца

Сообщений: 22

и кстати что за фигня я раздаю со скоростью 100 кб/с (конечно не много) но качаю со скоростью 7-10 кб/с
Ну во1,есть док.фильм 97 года-Тайна Перевала Дятлова. Затем,завтра утром по первому будет программа-фильм-Отчислены по случаю смерти.Также на этой неделе 2 выпуска телепередачи "Пусть говорят" были посвящены аналогичной тематике. Ну и вроде бы завтра вечером в "Субботнем вечере" жду еще раз обсужение очень интересующей меня загадки Алтайского Х-файла)
P.S. В последней битве экстрасенсов выпуск был посвящен дятловцам. В сети куча сайтов,где выложены документы,фото и версии(64штуки)случившегося.

Создавать темы 19-Апр-2013 22:09

[Профиль]  [ЛС] 

Атабек.Д

Стаж: 4 года 11 месяцев

Сообщений: 7

у меня 1ый канал не показывает и тнт тоже перестал показывать нтв только 1 канал остался)

Создавать темы 19-Апр-2013 22:33

[Профиль]  [ЛС] 

Атабек.Д

Стаж: 4 года 11 месяцев

Сообщений: 7

во теперь норм качает

Создавать темы 19-Апр-2013 22:33

[Профиль]  [ЛС] 
Показать сообщения:    
Ответить на тему

Текущее время: 18-Дек 23:44

Часовой пояс: UTC + 5



Вы не можете начинать темы
Вы не можете отвечать на сообщения
Вы не можете редактировать свои сообщения
Вы не можете удалять свои сообщения
Вы не можете голосовать в опросах
Вы не можете прикреплять файлы к сообщениям
Вы не можете скачивать файлы