Джек Ричер / Jack Reacher (Кристофер МакКуорри) [2012 г., боевик, триллер, криминал, BDRip 720p]

Ответить на тему
 

ziyod ®

Стаж: 7 лет 7 месяцев

Сообщений: 367

Симпатии: 60

-Джек Ричер / Jack Reacher-«У закона есть пределы. У него их нет»- Год выпуска: 2012
Страна: США
Жанр: боевик, триллер, криминал
Продолжительность: 02:10:25
Перевод: Профессиональный (полное дублирование)
Режиссер: Кристофер МакКуорри
В ролях: Том Круз, Розамунд Пайк, Ричард Дженкинс, Вернер Херцог, Дэвид Ойелоуо, Роберт Дюваль, Джей Кортни, Владимир Сизов, Джозеф Сикора, Майкл Рэймонд-Джеймс
Описание: Cнайпер убивает пять случайных прохожих, но все улики указывают на человека, заключенного под стражу. На допросе подозреваемый умоляет об одном — найти Джека Ричера.
Рейтинг:
     
Качество: BDRip 720p
Формат: MKV
Видео кодек: H.26x
Аудио кодек: AC3
Видео: 4489 kb/s, 1280x544
Аудио: AC3, 448 kb/s (6 ch)

MI

General
Unique ID                                : 212979614877214769400935293729173377991 (0xA03A61BC921270638D936C6720E793C7)
Complete name                            : Jack.Reacher.2012.D.BDRip.720p.mkv
Format                                   : Matroska
Format version                           : Version 4 / Version 2
File size                                : 4.50 GiB
Duration                                 : 2h 10mn
Overall bit rate                         : 4 938 Kbps
Movie name                               : -==ziyod==-
Encoded date                             : UTC 2013-04-19 10:27:40
Writing application                      : mkvmerge v6.1.0 ('Old Devil') built on Mar  2 2013 14:32:37
Writing library                          : libebml v1.3.0 + libmatroska v1.4.0
Video
ID                                       : 1
Format                                   : AVC
Format/Info                              : Advanced Video Codec
Format profile                           : [email protected]
Format settings, CABAC                   : Yes
Format settings, ReFrames                : 5 frames
Codec ID                                 : V_MPEG4/ISO/AVC
Duration                                 : 2h 10mn
Bit rate                                 : 4 489 Kbps
Width                                    : 1 280 pixels
Height                                   : 544 pixels
Display aspect ratio                     : 2.35:1
Frame rate mode                          : Constant
Frame rate                               : 23.976 fps
Color space                              : YUV
Chroma subsampling                       : 4:2:0
Bit depth                                : 8 bits
Scan type                                : Progressive
Bits/(Pixel*Frame)                       : 0.269
Stream size                              : 4.00 GiB (89%)
Writing library                          : x264 core 130 r2273 b3065e6
Encoding settings                        : cabac=1 / ref=5 / deblock=1:-3:-3 / analyse=0x3:0x113 / me=umh / subme=8 / psy=1 / psy_rd=1.00:0.00 / mixed_ref=1 / me_range=16 / chroma_me=1 / trellis=1 / 8x8dct=1 / cqm=0 / deadzone=21,11 / fast_pskip=1 / chroma_qp_offset=-2 / threads=12 / lookahead_threads=2 / sliced_threads=0 / nr=0 / decimate=1 / interlaced=0 / bluray_compat=0 / constrained_intra=0 / bframes=3 / b_pyramid=2 / b_adapt=2 / b_bias=0 / direct=3 / weightb=1 / open_gop=0 / weightp=2 / keyint=240 / keyint_min=24 / scenecut=40 / intra_refresh=0 / rc_lookahead=50 / rc=2pass / mbtree=1 / bitrate=4489 / ratetol=1.0 / qcomp=0.60 / qpmin=0 / qpmax=69 / qpstep=4 / cplxblur=20.0 / qblur=0.5 / ip_ratio=1.40 / aq=1:1.00
Language                                 : English
Default                                  : Yes
Forced                                   : No
Audio
ID                                       : 2
Format                                   : AC-3
Format/Info                              : Audio Coding 3
Mode extension                           : CM (complete main)
Format settings, Endianness              : Big
Codec ID                                 : A_AC3
Duration                                 : 2h 10mn
Bit rate mode                            : Constant
Bit rate                                 : 448 Kbps
Channel(s)                               : 6 channels
Channel positions                        : Front: L C R, Side: L R, LFE
Sampling rate                            : 48.0 KHz
Bit depth                                : 16 bits
Compression mode                         : Lossy
Stream size                              : 418 MiB (9%)
Title                                    : Russian 5.1
Language                                 : Russian
Default                                  : Yes
Forced                                   : No
Text #1
ID                                       : 3
Format                                   : UTF-8
Codec ID                                 : S_TEXT/UTF8
Codec ID/Info                            : UTF-8 Plain Text
Language                                 : English
Default                                  : No
Forced                                   : No
Text #2
ID                                       : 4
Format                                   : UTF-8
Codec ID                                 : S_TEXT/UTF8
Codec ID/Info                            : UTF-8 Plain Text
Title                                    : SDH
Language                                 : English
Default                                  : No
Forced                                   : No
Menu
00:00:00.000                             : en:00:00:00.000
00:08:21.668                             : en:00:08:21.668
00:14:19.901                             : en:00:14:19.901
00:21:51.685                             : en:00:21:51.685
00:30:02.342                             : en:00:30:02.342
00:35:46.478                             : en:00:35:46.478
00:41:22.980                             : en:00:41:22.980
00:49:08.112                             : en:00:49:08.112
00:55:36.291                             : en:00:55:36.291
01:01:44.117                             : en:01:01:44.117
01:08:11.296                             : en:01:08:11.296
01:16:56.320                             : en:01:16:56.320
01:23:51.526                             : en:01:23:51.526
01:30:20.165                             : en:01:30:20.165
01:38:01.584                             : en:01:38:01.584
01:45:08.928                             : en:01:45:08.928
01:53:39.312                             : en:01:53:39.312
02:01:50.470                             : en:02:01:50.470

Скриншоты



Создавать темы 19-Апр-2013 16:27

[Профиль]  [ЛС] 

mysteriousjohn

Стаж: 6 лет 10 месяцев

Сообщений: 56

Симпатии: 1

чистый звук, скорее всего

Создавать темы 19-Апр-2013 19:16

[Профиль]  [ЛС] 

showtek

Стаж: 6 лет 11 месяцев

Сообщений: 68

Симпатии: 2

чистый звук, скорее всего
так и есть !

Создавать темы 19-Апр-2013 21:08

[Профиль]  [ЛС] 

ziyod ®

Стаж: 7 лет 7 месяцев

Сообщений: 367

Симпатии: 60

mysteriousjohn, showtek, я где-то написал про лицензию??? И что даже если не чистый а грязный звук? У вас, у всех дома 5.1 система звука??? Если даже и так так здесь ооочень чистый звук с шестью каналами!

Создавать темы 20-Апр-2013 06:13

[Профиль]  [ЛС] 

infernal.

Стаж: 7 лет 5 месяцев

Сообщений: 117

Симпатии: 1

ziyod, у меня 5.1 система стоит. и поверь, этот чистый звук, говенно верещит, ежели лицуха.

Создавать темы 23-Апр-2013 14:07

[Профиль]  [ЛС] 

ziyod ®

Стаж: 7 лет 7 месяцев

Сообщений: 367

Симпатии: 60

infernal., я где-то написал про лицензию???

Создавать темы 26-Апр-2013 18:29

[Профиль]  [ЛС] 

infernal.

Стаж: 7 лет 5 месяцев

Сообщений: 117

Симпатии: 1

И что даже если не чистый а грязный звук? У вас, у всех дома 5.1 система звука???

Создавать темы 28-Апр-2013 00:58

[Профиль]  [ЛС] 
Показать сообщения:    
Ответить на тему

Текущее время: 18-Окт 03:23

Часовой пояс: UTC + 5



Вы не можете начинать темы
Вы не можете отвечать на сообщения
Вы не можете редактировать свои сообщения
Вы не можете удалять свои сообщения
Вы не можете голосовать в опросах
Вы не можете прикреплять файлы к сообщениям
Вы не можете скачивать файлы