Джек Ричер / Jack Reacher (Кристофер МакКуорри / Christopher McQuarrie) [2012, США, боевик, триллер, криминал, детектив, HDRip]

Страницы :  1, 2  След.

Ответить на тему
 

Suxrob89 ®

Стаж: 7 лет 2 месяца

Сообщений: 933

Симпатии: 564

-Джек Ричер / Jack Reacher-«У закона есть пределы. У него их нет»- Страна: США
Жанр: боевик, триллер, криминал, детектив
Год выпуска: 2012
Продолжительность: 02:10:24
Перевод: Профессиональный (полное дублирование)
Cубтитры: нет
Оригинальная аудиодорожка: нет-Режиссер: Кристофер МакКуорри / Christopher McQuarrie-В ролях: Том Круз, Розамунд Пайк, Ричард Дженкинс, Вернер Херцог, Дэвид Ойелоуо, Роберт Дюваль, Джей Кортни, Владимир Сизов, Джозеф Сикора, Майкл Рэймонд-Джеймс-Описание: Снайпер убивает пять случайных прохожих, но все улики указывают на человека, заключенного под стражу. На допросе подозреваемый умоляет об одном — найти Джека Ричера.- -Качество видео: HDRip (Исходник - BDRip 720p)
Формат видео: AVI
Видео кодек: XviD
Аудио кодек: AC3
Видео: 720x304 (2.37:1), 23.976 fps, XviD MPEG-4 1799 Kbps avg, 0.34 bit/pixel
Аудио: 48 kHz, AC3 Dolby Digital, 6 channels , ~448 kbps

MediaInfo

G:\Jack.Reacher.2012.D.HDRip.avi
General
Complete name : G:\Jack.Reacher.2012.D.HDRip.avi
Format : AVI
Format/Info : Audio Video Interleave
Format profile : OpenDML
File size : 2.06 GiB
Duration : 2h 10mn
Overall bit rate : 2 259 Kbps
Writing application : VirtualDubMod 1.5.10.2 (build 2542/release)
Writing library : VirtualDubMod build 2542/release
Video #0
ID : 0
Format : MPEG-4 Visual
Format profile : Advanced [email protected]
Format settings, BVOP : Yes
Format settings, QPel : No
Format settings, GMC : No warppoints
Format settings, Matrix : Default (MPEG)
Muxing mode : Packed bitstream
Codec ID : XVID
Codec ID/Hint : XviD
Duration : 2h 10mn
Bit rate : 1 799 Kbps
Width : 720 pixels
Height : 304 pixels
Display aspect ratio : 2.35:1
Frame rate : 23.976 fps
Color space : YUV
Chroma subsampling : 4:2:0
Bit depth : 8 bits
Scan type : Progressive
Bits/(Pixel*Frame) : 0.343
Stream size : 1.64 GiB (80%)
Writing library : XviD 1.2.1 (UTC 2008-12-04)
Audio #1
ID : 1
Format : AC-3
Format/Info : Audio Coding 3
Mode extension : CM (complete main)
Codec ID : 2000
Duration : 2h 10mn
Bit rate mode : Constant
Bit rate : 448 Kbps
Channel(s) : 6 channels
Channel positions : Front: L C R, Side: L R, LFE
Sampling rate : 48.0 KHz
Bit depth : 16 bits
Stream size : 418 MiB (20%)
Alignment : Split accross interleaves
Interleave, duration : 42 ms (1.00 video frame)
Interleave, preload duration : 500 ms

Скриншот c названием фильма

Скриншоты



Последний раз редактировалось: Suxrob89 (2013-05-19 06:24), всего редактировалось 4 раз(а)

Создавать темы 19-Апр-2013 18:01

[Профиль]  [ЛС] 

charon_87

Стаж: 5 лет

Сообщений: 17

Симпатии: 1

Это лицуха?

Создавать темы 19-Апр-2013 19:45

[Профиль]  [ЛС] 

Javohir96

Стаж: 5 лет 8 месяцев

Сообщений: 40

Симпатии: 1

нет!! Дата выхода:
DVD релиза: 13 мая 2013,
Blu-Ray релиза: 13 мая 2013,

все равно качество хорошее, спс автору!!

Создавать темы 19-Апр-2013 20:06

[Профиль]  [ЛС] 

laziz1888

Стаж: 5 лет

Сообщений: 31

Симпатии: 3

surob89 бросок кобры когда лицуху выложищ

Создавать темы 19-Апр-2013 22:04

[Профиль]  [ЛС] 

Suxrob89 ®

Стаж: 7 лет 2 месяца

Сообщений: 933

Симпатии: 564

laziz1888, когда в мире выложуть

Создавать темы 19-Апр-2013 23:05

[Профиль]  [ЛС] 

Javohir96

Стаж: 5 лет 8 месяцев

Сообщений: 40

Симпатии: 1

Вот блу-рей тоже выложили: http://tas-ix.net/viewtopic.php?t=68648
значить это лицуха!
Да не лицуха это!! а чистый звук! даже в шапке темы не написано что это лицуха, ее еще нет!

Создавать темы 20-Апр-2013 08:10

[Профиль]  [ЛС] 

lForeveRl

Стаж: 5 лет 9 месяцев

Сообщений: 14

какая разница!!! лицуха или чистый звук лучше скажите спс!!!

Создавать темы 20-Апр-2013 13:08

[Профиль]  [ЛС] 

bubldin 2

Стаж: 5 лет 8 месяцев

Сообщений: 14

среди личеров одни жиды чтоли 26 часов фильм качаю1 гиг скачал 3 раздал

Создавать темы 20-Апр-2013 20:19

[Профиль]  [ЛС] 

user01

Стаж: 4 года 7 месяцев

Сообщений: 5

какая разница!!! лицуха или чистый звук лучше скажите спс!!!
если не знаешь то молчи, разница хоть и маленькая но она ощутимая!!! лично я буду ждать лицуху, а те кто пишет что звук 6 канальный и нет разницы пусть качают

Создавать темы 21-Апр-2013 17:24

[Профиль]  [ЛС] 

root

Стаж: 5 лет 4 месяца

Сообщений: 592

Симпатии: 172

какая разница!!! лицуха или чистый звук лучше скажите спс!!!
если не знаешь то молчи, разница хоть и маленькая но она ощутимая!!! лично я буду ждать лицуху, а те кто пишет что звук 6 канальный и нет разницы пусть качают
Эх озвучки Володарского на вас нет

Создавать темы 21-Апр-2013 17:37

[Профиль]  [ЛС] 

user01

Стаж: 4 года 7 месяцев

Сообщений: 5

какая разница!!! лицуха или чистый звук лучше скажите спс!!!
если не знаешь то молчи, разница хоть и маленькая но она ощутимая!!! лично я буду ждать лицуху, а те кто пишет что звук 6 канальный и нет разницы пусть качают
Эх озвучки Володарского на вас нет
а кому он нафиг нужен?? :tm:

Создавать темы 21-Апр-2013 17:53

[Профиль]  [ЛС] 

Suxrob89 ®

Стаж: 7 лет 2 месяца

Сообщений: 933

Симпатии: 564

http://tas-ix.net/viewtopic.php?t=68915 [Лицензия]

Создавать темы 23-Апр-2013 07:23

[Профиль]  [ЛС] 

RedBull

Стаж: 6 лет 6 месяцев

Сообщений: 185

Симпатии: 4

Лицуха всегда выходит раньше чем написано в кинопоиске,не надо годать 19 апреля или 13 мая

Создавать темы 24-Апр-2013 01:48

[Профиль]  [ЛС] 

exxtreme

Стаж: 5 лет 7 месяцев

Сообщений: 63

Симпатии: 18

Том Круз молодец...! Отличная роль, неплохой стиль... я бы сказал, после "Соучастник" это номер №2 по стилю и исполнению!
Да и вобще Том Круз, Дензел Вашингтон, Леонардо Ди Каприо, а теперь и Колин Фаррелл начали меня радовать своим исполнением эти несколько лет подряд. БОЛЬШЕ ФИЛЬМОВ С ЭТИМИ ДЯДЬКАМИ!!!

Создавать темы 24-Апр-2013 02:10

[Профиль]  [ЛС] 

dknight

Стаж: 5 лет 8 месяцев

Сообщений: 28

ребята! Те которые скачали. Не уходите с раздачи. Дайте скачать!)) И еще автору спс! молочь!

Создавать темы 24-Апр-2013 10:23

[Профиль]  [ЛС] 
Показать сообщения:    
Ответить на тему

Текущее время: 20-Окт 06:33

Часовой пояс: UTC + 5



Вы не можете начинать темы
Вы не можете отвечать на сообщения
Вы не можете редактировать свои сообщения
Вы не можете удалять свои сообщения
Вы не можете голосовать в опросах
Вы не можете прикреплять файлы к сообщениям
Вы не можете скачивать файлы