Хищник 2 / Predator 2 (Стивен Хопкинс / Stephen Hopkins) [1990 г., Фантастика, боевик, DVDRip]

Ответить на тему
 

FiedeL ®

Стаж: 6 лет 6 месяцев

Сообщений: 27

Симпатии: 1

Хищник 2 / Predator 2
Год выпуска: 1990
Страна: США
Жанр: Фантастика, боевик
Продолжительность: 01:47:59
Перевод: Профессиональный (многоголосый); любительский (одноголосый, Гаврилов); профессиональный (полное дублирование)
Режиссер: Стивен Хопкинс / Stephen Hopkins
В ролях: Дэнни Гловер /Danny Glover/, Гэри Бьюзи /Gary Busey/, Рубен Бладес /Ruben Blades/, Билл Пакстон /Bill Paxton/, Мария Кончита Алонсо /Maria Conchita Alonso/, Адам Болдуин /Adam Baldwin/, Кевин Питер Холл /Kevin Peter Hall/
Описание: Лос-Анджелес 1997 года - настоящая "горячая точка", во всех смыслах этого выражения. Стоит аномальная жара. На улицах мегаполиса идёт открытая война между колумбийской и ямайской группировками, в которую не слишком успешно пытается вмешаться полиция. Проспекты перегораживаются баррикадами, дома превращаются наркоторговцами в крепости и склады оружия. Гибнут полицейские и гражданские. Градус насилия зашкаливает за все мыслимые пределы. Однако, совсем скоро лейтенанту Майклу Харригану и команде его оперативников становится ясно, что ситуация намного хуже, чем они могли себе представить: в самый разгар конфликта в Лос-Анджелесе объявляется инопланетный охотник...
Качество: DVDRip
Формат: AVI
Видео кодек: XviD
Аудио кодек: AC3
Видео: Xvid 720x400 23.976fps
Аудио #1: Dolby AC3 48000Hz 6ch 320kbps [Stream 01], MVO
Аудио #2: Dolby AC3 48000Hz 6ch 320kbps [Stream 02], Gavrilov
Аудио #3: Dolby AC3 48000Hz stereo 128kbps [Stream 03], Dub

Скриншоты





MI

General
Complete name : E:\Films\Predator 2.avi
Format : AVI
Format/Info : Audio Video Interleave
File size : 1.46 GiB
Duration : 1h 47mn
Overall bit rate : 1 936 Kbps
Writing application : VirtualDubMod 1.5.10.2 (build 2540/release)
Writing library : VirtualDubMod build 2540/release
Video
ID : 0
Format : MPEG-4 Visual
Format profile : Advanced [email protected]
Format settings, BVOP : 3
Format settings, QPel : No
Format settings, GMC : No warppoints
Format settings, Matrix : Custom
Codec ID : XVID
Codec ID/Hint : XviD
Duration : 1h 47mn
Bit rate : 1 150 Kbps
Width : 720 pixels
Height : 400 pixels
Display aspect ratio : 16:9
Frame rate : 23.976 fps
Color space : YUV
Chroma subsampling : 4:2:0
Bit depth : 8 bits
Scan type : Progressive
Compression mode : Lossy
Bits/(Pixel*Frame) : 0.166
Stream size : 888 MiB (59%)
Writing library : XviD 1.2.0.dev47 (UTC 2006-11-01)
Audio #1
ID : 1
Format : AC-3
Format/Info : Audio Coding 3
Mode extension : CM (complete main)
Format settings, Endianness : Big
Codec ID : 2000
Duration : 1h 47mn
Bit rate mode : Constant
Bit rate : 320 Kbps
Channel(s) : 6 channels
Channel positions : Front: L C R, Side: L R, LFE
Sampling rate : 48.0 KHz
Bit depth : 16 bits
Compression mode : Lossy
Delay relative to video : 200ms
Stream size : 247 MiB (17%)
Alignment : Split accross interleaves
Interleave, duration : 42 ms (1.00 video frame)
Interleave, preload duration : 500 ms
Audio #2
ID : 2
Format : AC-3
Format/Info : Audio Coding 3
Mode extension : CM (complete main)
Format settings, Endianness : Big
Codec ID : 2000
Duration : 1h 47mn
Bit rate mode : Constant
Bit rate : 320 Kbps
Channel(s) : 6 channels
Channel positions : Front: L C R, Side: L R, LFE
Sampling rate : 48.0 KHz
Bit depth : 16 bits
Compression mode : Lossy
Stream size : 247 MiB (17%)
Alignment : Split accross interleaves
Interleave, duration : 42 ms (1.00 video frame)
Interleave, preload duration : 500 ms
Audio #3
ID : 3
Format : AC-3
Format/Info : Audio Coding 3
Mode extension : CM (complete main)
Format settings, Endianness : Big
Codec ID : 2000
Duration : 1h 47mn
Bit rate mode : Constant
Bit rate : 128 Kbps
Channel(s) : 2 channels
Channel positions : Front: L R
Sampling rate : 48.0 KHz
Bit depth : 16 bits
Compression mode : Lossy
Stream size : 98.9 MiB (7%)
Alignment : Split accross interleaves
Interleave, duration : 42 ms (1.00 video frame)
Interleave, preload duration : 500 ms
НЕ ЗАБЫВАЙТЕ ПОДДЕРЖИВАТЬ РАЗДАЧУ!

Создавать темы 19-Апр-2013 18:43

[Профиль]  [ЛС] 

фазилов

Стаж: 3 года 9 месяцев

Сообщений: 310

Симпатии: 344

Нет раздачи. Пишет - HTTP Error 404 . Перезагрузка и обновление торрета не помогает. Сидеров-3.

Создавать темы 16-Фев-2014 06:58

[Профиль]  [ЛС] 

фазилов

Стаж: 3 года 9 месяцев

Сообщений: 310

Симпатии: 344

Спасибо-увидел.

Создавать темы 16-Фев-2014 12:51

[Профиль]  [ЛС] 

FiedeL ®

Стаж: 6 лет 6 месяцев

Сообщений: 27

Симпатии: 1

В связи с переездом в Российскую Федерацию более раздавать на этом трекере не имею возможности. Приношу свои извинения.

Создавать темы 18-Окт-2014 03:14

[Профиль]  [ЛС] 
Показать сообщения:    
Ответить на тему

Текущее время: 23-Ноя 23:47

Часовой пояс: UTC + 5



Вы не можете начинать темы
Вы не можете отвечать на сообщения
Вы не можете редактировать свои сообщения
Вы не можете удалять свои сообщения
Вы не можете голосовать в опросах
Вы не можете прикреплять файлы к сообщениям
Вы не можете скачивать файлы