28 спален / 28 Hotel Rooms (Unrated) (Мэтт Росс) [2012, драма, WEB-DLRip]

Ответить на тему
 

jaska-3d ®

Стаж: 5 лет 10 месяцев

Сообщений: 250

Симпатии: 25

28 спален -28 Hotel Rooms (Unrated)--
Год выпуска: 2012
Страна: США
Жанр: драма
Продолжительность: 01:22:21
Перевод: Дублированный [Звук с TS]-Режиссер: Мэтт Росс
Сценарий: Мэтт Росс
Продюсер: Саманта Хаусман, Линетт Хауэлл, Луиз Рунге, ...
Оператор: Даг Эмметт
Композитор: Fall On Your Sword
Художник: Джулия Кэстон, Джэми Рэдвуд
Монтаж: Джозеф Крингс-В ролях: Крис Мессина / Chris Messina (Man), Марин Айрлэнд / Marin Ireland (Woman), Роберт Димер / Robert Deamer (в титрах: Robert E Deamer Jr) (Bartender), Бретт Колье / Brett Collier (Bar Patron)-Описание: Мужчина и женщина приезжают по работе в один и тот же город и останавливаются на ночь в одной гостинице. Через несколько месяцев они сталкиваются друг с другом в гостиничном ресторане другого города и второй раз проводят ночь вместе. Несмотря на то, что она замужем, а у него есть подруга, они решают продолжать встречаться. Так зарождается неожиданная любовь, постепенно перерастающая в глубокие отношения, которые грозят существенно изменить всю их жизнь…-Сборы в США: $18 869
Сборы в России: $49 575
Зрители: Россия 6.7 тыс.
Премьера (мир): 21 января 2012, ...
Премьера (РФ): 14 марта 2013, «P&I Films»
Рейтинг MPAA: Лицам до 17 лет обязательно присутствие взрослого-- -- -Качество: WEB-DLRip
Формат: AVI
Видео кодек: XviD
Аудио кодеk: AC3
Видео: 720x384 (1.875:1), 23.976 fps, XviD, 2 116 Kbps
Аудио: Аудио #1: Русский AC3, 192 Kbps, 48.0 KHz, 2 ch
Аудио #2: Английский AC3, 224 Kbps, 48.0 KHz, 6 ch

МедиаИнфо

General
Complete name                    : 28.Hotel.Rooms.2012.Pt.UNRATED.WEBDLRip.avi
Format                           : AVI
Format/Info                      : Audio Video Interleave
File size                        : 1.46 GiB
Duration                         : 1h 22mn
Overall bit rate                 : 2 546 Kbps
Writing application              : VirtualDubModRus 1.5.10.2 (build 2542/release)
Writing library                  : VirtualDubMod build 2542/release
Video
ID                               : 0
Format                           : MPEG-4 Visual
Format profile                   : Advanced Simple@L5
Format settings, BVOP            : Yes
Format settings, QPel            : No
Format settings, GMC             : No warppoints
Format settings, Matrix          : Custom
Codec ID                         : XVID
Codec ID/Hint                    : XviD
Duration                         : 1h 22mn
Bit rate                         : 2 116 Kbps
Width                            : 720 pixels
Height                           : 384 pixels
Display aspect ratio             : 1.875
Frame rate                       : 23.976 fps
Color space                      : YUV
Chroma subsampling               : 4:2:0
Bit depth                        : 8 bits
Scan type                        : Progressive
Bits/(Pixel*Frame)               : 0.319
Stream size                      : 1.22 GiB (83%)
Writing library                  : XviD 1.2.1 (UTC 2008-12-04)
Audio #1
ID                               : 1
Format                           : AC-3
Format/Info                      : Audio Coding 3
Mode extension                   : CM (complete main)
Codec ID                         : 2000
Duration                         : 1h 22mn
Bit rate mode                    : Constant
Bit rate                         : 192 Kbps
Channel(s)                       : 2 channels
Channel positions                : Front: L R
Sampling rate                    : 48.0 KHz
Bit depth                        : 16 bits
Stream size                      : 113 MiB (8%)
Alignment                        : Split accross interleaves
Interleave, duration             : 42 ms (1.00 video frame)
Interleave, preload duration     : 500 ms
Audio #2
ID                               : 2
Format                           : AC-3
Format/Info                      : Audio Coding 3
Mode extension                   : CM (complete main)
Codec ID                         : 2000
Duration                         : 1h 22mn
Bit rate mode                    : Constant
Bit rate                         : 224 Kbps
Channel(s)                       : 6 channels
Channel positions                : Front: L C R, Side: L R, LFE
Sampling rate                    : 48.0 KHz
Bit depth                        : 16 bits
Stream size                      : 132 MiB (9%)
Alignment                        : Split accross interleaves
Interleave, duration             : 42 ms (1.00 video frame)
Interleave, preload duration     : 500 ms

Скриншоты



Создавать темы 20-Апр-2013 09:53

[Профиль]  [ЛС] 

jaska-3d ®

Стаж: 5 лет 10 месяцев

Сообщений: 250

Симпатии: 25

Красавица


Последний раз редактировалось: jaska-3d (2013-04-27 20:18), всего редактировалось 2 раз(а)

Создавать темы 21-Апр-2013 14:53

[Профиль]  [ЛС] 

valiko

Стаж: 4 года 8 месяцев

Сообщений: 25

почему не качает ребята дайте скорость думаю интересный фильм

Создавать темы 22-Апр-2013 01:54

[Профиль]  [ЛС] 

valiko

Стаж: 4 года 8 месяцев

Сообщений: 25

скачавшие встаньте на раздачу пожалуйста

Создавать темы 22-Апр-2013 01:55

[Профиль]  [ЛС] 

skvoznyak

Стаж: 4 года 8 месяцев

Сообщений: 2

народ вернитесь на раздачу !! bc bc

Создавать темы 24-Окт-2013 16:06

[Профиль]  [ЛС] 
Показать сообщения:    
Ответить на тему

Текущее время: 23-Окт 09:32

Часовой пояс: UTC + 5



Вы не можете начинать темы
Вы не можете отвечать на сообщения
Вы не можете редактировать свои сообщения
Вы не можете удалять свои сообщения
Вы не можете голосовать в опросах
Вы не можете прикреплять файлы к сообщениям
Вы не можете скачивать файлы