Добро пожаловать в капкан / Welcome to the Punch (Эрен Криви / Eran Creevy) [2013 г., боевик, триллер, криминал, приключения, WEB-DLRip] AVO + Original Eng

Ответить на тему
 

Bek19-82 ®

Стаж: 6 лет 4 месяца

Сообщений: 66

Симпатии: 1

Добро пожаловать в капкан / Welcome to the Punch
: 2013
: Великобритания, США
: боевик, триллер, криминал, приключения.
: 01:39:45
: Авторский (одноголосый закадровый) [А. Дольский]
: Эрен Криви
: Джеймс МакЭвой,Марк Стронг,Андреа Райзборо,Дэвид,Моррисси,Джейсон Флеминг,Питер Муллан,Джонни Харрис,Элайес Габел,Дэниэл Мейс,Стив Орам

: Бывший преступник Джейкоб Стернбуд вынужден вернуться в Лондон из своего убежища, когда его сын вовлечен в ограбление пошедшее не так. У детектива Макса Левински появляется шанс поймать человека, которому всегда удавалось уйти. Соперники снова меряются силами, но они сталкиваются с более глубоким преступным заговором, с которым вынуждены бороться, чтобы выжить.

: WEB-DLRip / WEB-DL 720p
: AVI
Видео кодек: XviD
Аудио кодек: AC3
Видео: 704x288, 23.976 fps, XviD build 65 ~1502 kbps avg, 0.31 bit/pixel
:#1: 48 kHz, AC3 Dolby Digital, 3/2 (L,C,R,l,r) + LFE ch, ~384.00 kbps avg (RUS)
:#2: 48 kHz, AC3 Dolby Digital, 2/0 (L,R) ch, ~192.00 kbps avg (ENG)

AVinfo:

General
Complete name : E:\KINO\Boevek\Welcome.to.the.Punch.2013.WEB-DL.avi
Format : AVI
Format/Info : Audio Video Interleave
File size : 1.46 GiB
Duration : 1h 39mn
Overall bit rate : 2 090 Kbps
Video #0
ID : 0
Format : MPEG-4 Visual
Format profile : [email protected]
Format settings, BVOP : Yes
Format settings, QPel : No
Format settings, GMC : No warppoints
Format settings, Matrix : Custom
Codec ID : XVID
Codec ID/Hint : XviD
Duration : 1h 39mn
Bit rate : 1 503 Kbps
Width : 704 pixels
Height : 288 pixels
Display aspect ratio : 2.40:1
Frame rate : 23.976 fps
Resolution : 24 bits
Colorimetry : 4:2:0
Scan type : Progressive
Bits/(Pixel*Frame) : 0.309
Stream size : 1.05 GiB (72%)
Writing library : XviD 65
Audio #1
ID : 1
Format : AC-3
Format/Info : Audio Coding 3
Codec ID : 2000
Duration : 1h 39mn
Bit rate mode : Constant
Bit rate : 384 Kbps
Channel(s) : 6 channels
Channel positions : Front: L C R, Surround: L R, LFE
Sampling rate : 48.0 KHz
Stream size : 274 MiB (18%)
Alignment : Aligned on interleaves
Interleave, duration : 64 ms (1.53 video frames)
Interleave, preload duration : 512 ms
Title : Welcome.to.the.Punch.2013.WEB-DL.rus
Audio #2
ID : 2
Format : AC-3
Format/Info : Audio Coding 3
Codec ID : 2000
Duration : 1h 39mn
Bit rate mode : Constant
Bit rate : 192 Kbps
Channel(s) : 2 channels
Channel positions : L R
Sampling rate : 48.0 KHz
Stream size : 137 MiB (9%)
Alignment : Aligned on interleaves
Interleave, duration : 64 ms (1.53 video frames)
Interleave, preload duration : 512 ms
Title : Welcome.to.the.Punch.2013.WEB-DL.eng

Скриншоты






Последний раз редактировалось: Bek19-82 (2013-04-20 18:58), всего редактировалось 7 раз(а)

Создавать темы 20-Апр-2013 15:05

[Профиль]  [ЛС] 

uTorrent

Стаж: 5 лет 1 месяц

Сообщений: 149

Симпатии: 1

Классно оформил. как вообще фильм? можно посмотреть или так себе.

Создавать темы 20-Апр-2013 15:37

[Профиль]  [ЛС] 

Bek19-82 ®

Стаж: 6 лет 4 месяца

Сообщений: 66

Симпатии: 1

Классно оформил. как вообще фильм? можно посмотреть или так себе.
отлично фильм Советую все Смотреть.

Создавать темы 20-Апр-2013 15:47

[Профиль]  [ЛС] 

Bek19-82 ®

Стаж: 6 лет 4 месяца

Сообщений: 66

Симпатии: 1

Уважаемый! пользователе я через 3 часа буду тут,

Создавать темы 20-Апр-2013 16:25

[Профиль]  [ЛС] 

jocker

Стаж: 6 лет 8 месяцев

Сообщений: 10

Симпатии: 1

а где раздача ?

Создавать темы 24-Апр-2013 23:09

[Профиль]  [ЛС] 

Jnec

Стаж: 5 лет 1 месяц

Сообщений: 165

Спасибо большое!!!

Создавать темы 01-Май-2013 13:09

[Профиль]  [ЛС] 

Batir88

Стаж: 5 лет 8 месяцев

Сообщений: 3

А где сидеры

Создавать темы 13-Май-2013 22:55

[Профиль]  [ЛС] 
Показать сообщения:    
Ответить на тему

Текущее время: 21-Ноя 15:06

Часовой пояс: UTC + 5



Вы не можете начинать темы
Вы не можете отвечать на сообщения
Вы не можете редактировать свои сообщения
Вы не можете удалять свои сообщения
Вы не можете голосовать в опросах
Вы не можете прикреплять файлы к сообщениям
Вы не можете скачивать файлы