Красавица (Кён-тон Ё) [2000, драма, DVDRip]

Ответить на тему
 

jaska-3d ®

Стаж: 5 лет 11 месяцев

Сообщений: 250

Симпатии: 25

Красавица / La Belle / Mi in«Watashi dakeno hada no kioku [Япония]»-
Год выпуска: 2000
Страна: Корея Южная
Жанр: драма
Продолжительность: 01:33:26
Перевод: Субтитры
Субтитры: (Русские - Автор перевода: terra)-Режиссер: Кён-тон Ё
Сценарий: Сан-ву Ли, Кён-тон Ё
Продюсер: Су-нам Ли, Ин-тхэк Йу
Оператор: Яе-хо Ким
Композитор: Ён-сим Но
Художник: Мён Кён Ким
Монтаж: Юнь Су Ли-В ролях: О Чжи Хо / Oh Ji-ho , Чжи-Хён Ли / Ji-hyeon Lee - -Описание: Злую шутку может сыграть красивое тело с его обладательницей и тем, кто испытывает к нему желание, постепенно превращающееся в одержимость, а затем и любовь. Неожиданно к писателю возвращается женщина из прошлого и просит разрешения остаться у него жить. Они снова становятся близки, но он понимает, что у нее кто-то есть. Как только раздается телефонный звонок, независимо от времени суток, — она уходит. Но через несколько часов возвращается вновь. И с каждым разом она возвращается все более печальной, а ему с каждым разом все сложнее ее отпускать.

Еще от переводчика

Еще от переводчика: По-настоящему азиатский фильм. Полный минимализм и поэтичность. Два действующих лица. Закрытая комната. Немного слов. И пусть вас не вводит в заблуждение жанр "драма", потому что это очень грустная история. Несмотря на то, что герои постоянно занимаются любовью, они испытывают массу негативных эмоций - злость, одиночество, страх, ревность, отчаяние, боль. В фильме будет несколько сцен, когда хочется плакать от безысходности. Фильм безумно поэтичный. Эта поэтичность складывается из того, как создатели играют позами героев, используют музыку и цвета, вставляют диалоги-подсказки, ну и конечно из мыслей главного героя (прекрасных белых стихов).
-Премьера (мир): 12 августа 2000, ...
Рейтинг MPAA: Лицам до 17 лет обязательно присутствие взрослого-- -- -Качество: DVDRip
Формат: AVI
Видео кодек: XviD
Аудио кодеk: AC3
Видео: 800x432 (1.852:1), 23.976 fps, XviD, 1 703 Kbps
Аудио: Аудио #1: AC3, 384 Kbps, 48.0 KHz, 6 ch

МедиаИнфо

General
Complete name                    : La Belle 2000.avi
Format                           : AVI
Format/Info                      : Audio Video Interleave
File size                        : 1.37 GiB
Duration                         : 1h 33mn
Overall bit rate                 : 2 097 Kbps
Writing application              : VirtualDubMod 1.5.10.2 (build 2540/release)
Writing library                  : VirtualDub build 30009/release
Video
ID                               : 0
Format                           : MPEG-4 Visual
Format profile                   : Advanced [email protected]
Format settings, BVOP            : Yes
Format settings, QPel            : No
Format settings, GMC             : No warppoints
Format settings, Matrix          : Default (H.263)
Muxing mode                      : Packed bitstream
Codec ID                         : XVID
Codec ID/Hint                    : XviD
Duration                         : 1h 33mn
Bit rate                         : 1 703 Kbps
Width                            : 800 pixels
Height                           : 432 pixels
Display aspect ratio             : 1.852
Frame rate                       : 23.976 fps
Color space                      : YUV
Chroma subsampling               : 4:2:0
Bit depth                        : 8 bits
Scan type                        : Progressive
Bits/(Pixel*Frame)               : 0.206
Stream size                      : 1.11 GiB (81%)
Writing library                  : XviD 1.0.3 (UTC 2004-12-20)
Audio
ID                               : 1
Format                           : AC-3
Format/Info                      : Audio Coding 3
Mode extension                   : CM (complete main)
Codec ID                         : 2000
Duration                         : 1h 33mn
Bit rate mode                    : Constant
Bit rate                         : 384 Kbps
Channel(s)                       : 6 channels
Channel positions                : Front: L C R, Side: L R, LFE
Sampling rate                    : 48.0 KHz
Bit depth                        : 16 bits
Stream size                      : 257 MiB (18%)
Alignment                        : Split accross interleaves
Interleave, duration             : 42 ms (1.00 video frame)
Interleave, preload duration     : 500 ms

Скриншоты










Последний раз редактировалось: jaska-3d (2013-04-21 15:06), всего редактировалось 6 раз(а)

Создавать темы 21-Апр-2013 14:29

[Профиль]  [ЛС] 

Slowwalker

Стаж: 4 года 10 месяцев

Сообщений: 165

Симпатии: 68

Фильм типа "Сливовый цвет" ?

Создавать темы 21-Апр-2013 14:33

[Профиль]  [ЛС] 

jaska-3d ®

Стаж: 5 лет 11 месяцев

Сообщений: 250

Симпатии: 25

Голодная жена и горячий любовник


Последний раз редактировалось: jaska-3d (2013-04-27 20:18), всего редактировалось 1 раз

Создавать темы 21-Апр-2013 14:40

[Профиль]  [ЛС] 

zafarjonbek

Стаж: 6 лет 7 месяцев

Сообщений: 11

проверите

Создавать темы 21-Апр-2013 14:50

[Профиль]  [ЛС] 

LanceR

Стаж: 5 лет 2 месяца

Сообщений: 63

Симпатии: 1

СПС за релиз!!!

Создавать темы 21-Апр-2013 22:24

[Профиль]  [ЛС] 

Топик был перенесен из форума Зарубежное кино в форум Азиатские фильмы

Mixer City

Создавать темы 21-Апр-2013 23:24

 

Mixer City

Стаж: 6 лет 11 месяцев

Сообщений: 754

Симпатии: 63

jaska-3d, допиши, что субтитры отдельным файлом...

Создавать темы 21-Апр-2013 23:25

[Профиль]  [ЛС] 

Behruz 07

Стаж: 4 года 7 месяцев

Сообщений: 7

СПС

Создавать темы 22-Апр-2013 17:03

[Профиль]  [ЛС] 

Laki

Стаж: 5 лет 7 месяцев

Сообщений: 49

Симпатии: 4

Нормальная эро. СПС

Создавать темы 26-Апр-2013 17:45

[Профиль]  [ЛС] 

King_93

Стаж: 5 лет 5 месяцев

Сообщений: 25

хотелосбы скорости, ето возможно

Создавать темы 28-Апр-2013 09:14

[Профиль]  [ЛС] 

Dan Balan

Стаж: 5 лет 8 месяцев

Сообщений: 15

Симпатии: 1

скорость дайте друзя!!!

Создавать темы 12-Май-2013 13:50

[Профиль]  [ЛС] 

m1sF1tS

Стаж: 4 года 6 месяцев

Сообщений: 2

Это порно?

Создавать темы 12-Июн-2013 15:29

[Профиль]  [ЛС] 
Показать сообщения:    
Ответить на тему

Текущее время: 23-Ноя 06:38

Часовой пояс: UTC + 5



Вы не можете начинать темы
Вы не можете отвечать на сообщения
Вы не можете редактировать свои сообщения
Вы не можете удалять свои сообщения
Вы не можете голосовать в опросах
Вы не можете прикреплять файлы к сообщениям
Вы не можете скачивать файлы