Тревожная кнопка / Panic Button (Крис Кроу) [2011 г., Триллер, Ужасы, HDRip]

Ответить на тему
 

Nosferatu ®

Стаж: 4 года 5 месяцев

Сообщений: 79

Симпатии: 5

Тревожная кнопка / Panic Button- -Год выпуска: 2011
Страна: Великобритания
Жанр: Триллер, Ужасы
Продолжительность: 01:35:39
Перевод: Многоголосый закадровый-Режиссер: Крис Кроу-В ролях: Джек Гордон, Майкл Джибсон, Скарлет Джонсон, Элен Риз, Джошуа Ричардс, Верн Рэй, Меджи МакКарти, Сара Паркс, Кристофер Кейл, Ри Ричардс-Описание:
Четверо молодых людей выиграли поездку в Нью-Йорк, любезно предоставленную одной из социальных сетей. Когда они поднимаются на борт частного самолета, их просят отказаться от своих мобильных телефонов и принять участие в очень необычной игре…Им просто нужно отвечать на вопросы, но постепенно выясняется, что игра идет на их жизнь, на высоте 10 километров над океаном. И нет никакой возможности для побега!-Доп. информация:
Бюджет: £300 000
Рейтинг КиноПоиск.Ru: 5.53 (817)
Рейтинг IMDb: 5.2 (3544)-Качество: HDTVRip
Формат: AVI
Видео кодек: XviD
Аудио кодек: AC3
Видео: Xvid 720x304 23.976fps [Stream 00]
Аудио: Dolby AC3 48000Hz 6ch 448kbps [Stream 01]
-

Media Info

Format : AVI
Format/Info : Audio Video Interleave
File size : 1.46 GiB
Duration : 1h 35mn
Overall bit rate : 2 180 Kbps
Movie name : Trevozhnaja.knopka.2011.P.HDRip.IRONCLUB
Director : IRONCLUB
Genre : Horror, Thriller
Writing application : VirtualDubMod 1.5.10.2 (build 2540/release)
Original source form/Name : Movie
Copyright : http://ironclub.tv/
Video
ID : 0
Format : MPEG-4 Visual
Format profile : Advanced [email protected]
Format settings, BVOP : 1
Format settings, QPel : No
Format settings, GMC : No warppoints
Format settings, Matrix : Custom
Codec ID : XVID
Codec ID/Hint : XviD
Duration : 1h 35mn
Bit rate : 1 723 Kbps
Width : 720 pixels
Height : 304 pixels
Display aspect ratio : 2.35:1
Frame rate : 23.976 fps
Color space : YUV
Chroma subsampling : 4:2:0
Bit depth : 8 bits
Scan type : Progressive
Compression mode : Lossy
Bits/(Pixel*Frame) : 0.328
Stream size : 1.15 GiB (79%)
Writing library : XviD 1.2.1 (UTC 2008-12-04)
Audio
ID : 1
Format : AC-3
Format/Info : Audio Coding 3
Mode extension : CM (complete main)
Format settings, Endianness : Big
Codec ID : 2000
Duration : 1h 35mn
Bit rate mode : Constant
Bit rate : 448 Kbps
Channel(s) : 6 channels
Channel positions : Front: L C R, Side: L R, LFE
Sampling rate : 48.0 KHz
Bit depth : 16 bits
Compression mode : Lossy
Stream size : 306 MiB (21%)
Alignment : Split accross interleaves
Interleave, duration : 42 ms (1.00 video frame)
Interleave, preload duration : 500 ms

Скриншоты




Приятного просмотра! az


Последний раз редактировалось: Nosferatu (2013-04-29 19:04), всего редактировалось 2 раз(а)

Создавать темы 21-Апр-2013 14:52

[Профиль]  [ЛС] 

Mixer City

Стаж: 6 лет 8 месяцев

Сообщений: 754

Симпатии: 63

Nosferatu, в переводе уверен? Судя по: Trevozhnaya knopka.2011.p.hdrip.avi, выделенной букве, это мног. зак-ый...

Создавать темы 21-Апр-2013 23:19

[Профиль]  [ЛС] 

Alex Dancer

Стаж: 5 лет 7 месяцев

Сообщений: 181

Симпатии: 21

Качаю уже месяц. bu
Не могу докачать несчастные 333 метра. Кто-нибудь вернитесь на раздачу bc

Создавать темы 28-Окт-2013 22:38

[Профиль]  [ЛС] 

Alexuz

Стаж: 4 года 7 месяцев

Сообщений: 5

Зачем так выкладывать фильм, если не раздаешь?!
Уже неделю стоит, скачалось 3,9%!
Предлагаю забанить автора.

Создавать темы 24-Дек-2013 20:25

[Профиль]  [ЛС] 

Alex Dancer

Стаж: 5 лет 7 месяцев

Сообщений: 181

Симпатии: 21

НЕДЕЛЮ???!!! Ха! И ещё раз ХА!!!
Я этот релиз поставил на закачку 28 СЕНТЯБРЯ, и до сих пор не могу скачть последние несчастные 102 метра.

Создавать темы 24-Дек-2013 20:30

[Профиль]  [ЛС] 

Nosferatu ®

Стаж: 4 года 5 месяцев

Сообщений: 79

Симпатии: 5

736125Зачем так выкладывать фильм, если не раздаешь?!
Уже неделю стоит, скачалось 3,9%!
Предлагаю забанить автора.
Правила оформления раздач в этом разделе:
При скорости отдачи (Upload) менее 12 кб/с не разрешается сидировать более 1-ого файла одновременно (другие раздачи и закачки на этот момент должны быть завершены). При нарушении данного условия все ваши последующие одновременные раздачи будут закрываться. Начав раздачу, вы должны довести ее до конца, пока не появится минимум 3-5 скачавших.

Создавать темы 02-Май-2014 21:24

[Профиль]  [ЛС] 
Показать сообщения:    
Ответить на тему

Текущее время: 23-Авг 13:03

Часовой пояс: UTC + 5



Вы не можете начинать темы
Вы не можете отвечать на сообщения
Вы не можете редактировать свои сообщения
Вы не можете удалять свои сообщения
Вы не можете голосовать в опросах
Вы не можете прикреплять файлы к сообщениям
Вы не можете скачивать файлы