Гостья / The Host (Эндрю Никкол / Andrew Niccol) [2013, США, фантастика, боевик, триллер, HDRip][чистый звук]

Страницы :  1, 2, 3  След.

Ответить на тему
 

Suxrob89 ®

Стаж: 7 лет 4 месяца

Сообщений: 933

Симпатии: 564

-Гостья / The Host-«You will be one of us.»- Страна: США
Жанр: фантастика, боевик, триллер
Год выпуска: 2013
Продолжительность: 02:10:37
Перевод: Профессиональный (дублированный)[чистый звук]-Режиссер: Эндрю Никкол / Andrew Niccol-В ролях: Сирша Ронан, Скотт Лоуренс,Макс Айронс, Джейк Эйбел, Дайан Крюгер, Уильям Хёрт, Чандлер Кентербери, Фрэнсис Фишер, Бойд Холбрук, Мустафа Харрис-Описание: Земля — в опасности! Наше место скоро займут Души — лишенные плотской оболочки пришельцы, вытесняющие из человеческих тел разум и замещающие его разумом собственным. Большая часть человечества уже погибла. Немногие выжившие скрываются в жалкой попытке отсрочить неизбежное… Теперь Душа пытается захватить тело юной Мелани. Однако происходит неожиданное: Мелани и ее Душа вынуждены сосуществовать в одном теле. Гостье надлежало выследить и выдать землян-повстанцев, с которыми связана Мелани, но она помогает своей носительнице.- -Качество: HDRip
Формат: AVI
Видео кодек: XviD
Аудио кодек: AC3
Видео: 1962 Kb/s, 720x304
Аудио: 256 kb/s (2 ch)-

Media info

G:\Gostya.2013.D.HDRip.avi
General
Complete name : G:\Gostya.2013.D.HDRip.avi
Format : AVI
Format/Info : Audio Video Interleave
Format profile : OpenDML
File size : 2.06 GiB
Duration : 2h 10mn
Overall bit rate : 2 257 Kbps
Writing application : VirtualDubMod 1.5.10.2 (build 2542/release)
Writing library : VirtualDubMod build 2542/release
Video #0
ID : 0
Format : MPEG-4 Visual
Format profile : Advanced [email protected]
Format settings, BVOP : Yes
Format settings, QPel : No
Format settings, GMC : No warppoints
Format settings, Matrix : Default (MPEG)
Muxing mode : Packed bitstream
Codec ID : XVID
Codec ID/Hint : XviD
Duration : 2h 10mn
Bit rate : 1 985 Kbps
Width : 720 pixels
Height : 304 pixels
Display aspect ratio : 2.35:1
Frame rate : 29.970 fps
Color space : YUV
Chroma subsampling : 4:2:0
Bit depth : 8 bits
Scan type : Progressive
Bits/(Pixel*Frame) : 0.303
Stream size : 1.81 GiB (88%)
Writing library : XviD 1.2.1 (UTC 2008-12-04)
Audio #1
ID : 1
Format : AC-3
Format/Info : Audio Coding 3
Mode extension : CM (complete main)
Codec ID : 2000
Duration : 2h 10mn
Bit rate mode : Constant
Bit rate : 256 Kbps
Channel(s) : 2 channels
Channel positions : Front: L R
Sampling rate : 48.0 KHz
Bit depth : 16 bits
Stream size : 239 MiB (11%)
Alignment : Split accross interleaves
Interleave, duration : 33 ms (1.00 video frame)
Interleave, preload duration : 500 ms

Скриншот c названием фильма

Скриншоты



Последний раз редактировалось: Suxrob89 (2013-04-21 20:55), всего редактировалось 2 раз(а)

Создавать темы 21-Апр-2013 18:24

[Профиль]  [ЛС] 

Denton

Стаж: 4 года 8 месяцев

Сообщений: 51

Симпатии: 80

О круто! Скорее бы загрузка появилась!
А то в TS не очень хотелось смотреть, а тут скорее всего качество получше будет! :-)

Создавать темы 21-Апр-2013 18:32

[Профиль]  [ЛС] 

Lazerboy

Стаж: 6 лет 7 месяцев

Сообщений: 57

Симпатии: 13

начинаю скачать пока не начиналась промодерация

Создавать темы 21-Апр-2013 18:34

[Профиль]  [ЛС] 

Suxrob89 ®

Стаж: 7 лет 4 месяца

Сообщений: 933

Симпатии: 564

Обновите торрент файл !!!

Создавать темы 21-Апр-2013 19:14

[Профиль]  [ЛС] 

SNIL

Стаж: 5 лет 11 месяцев

Сообщений: 2624

Симпатии: 341

СПС! качнём!

Создавать темы 21-Апр-2013 19:18

[Профиль]  [ЛС] 

Nosferatu

Стаж: 4 года 9 месяцев

Сообщений: 79

Симпатии: 5

Спасибо за фильм!

Создавать темы 21-Апр-2013 19:20

[Профиль]  [ЛС] 

emulator

Стаж: 5 лет 3 месяца

Сообщений: 35

Симпатии: 1

спасибо автору:)

Создавать темы 21-Апр-2013 19:32

[Профиль]  [ЛС] 

Denton

Стаж: 4 года 8 месяцев

Сообщений: 51

Симпатии: 80

Автор раздачи, продолжительность фильма 2:10:37 ;-)
И ещё, те кто скачают/посмотрят, сразу не удаляйте фильм! bz
Вам помогли скачать и вы будьте любезны, помогите другим! Подержите файл, чтоб хотя бы в 0(НОЛЬ) выйти! bp
Что это значит? Объясняю, размер фильма 2 Гига, вот пока 2 ГИГА вы обратно не отдадите(у вас не скачают), сидите! :cc:

Создавать темы 21-Апр-2013 19:54

[Профиль]  [ЛС] 

leonidas

Стаж: 7 лет 3 месяца

Сообщений: 6

Автор раздачи, продолжительность фильма 2:10:37 ;-)
И ещё, те кто скачают/посмотрят, сразу не удаляйте фильм! bz
Вам помогли скачать и вы будьте любезны, помогите другим! Подержите файл, чтоб хотя бы в 0(НОЛЬ) выйти! bp
Что это значит? Объясняю, размер фильма 2 Гига, вот пока 2 ГИГА вы обратно не отдадите(у вас не скачают), сидите! :cc:
Не могу промолчать на такое!
Ок КЭП!

Создавать темы 21-Апр-2013 20:05

[Профиль]  [ЛС] 

Denton

Стаж: 4 года 8 месяцев

Сообщений: 51

Симпатии: 80

Не могу промолчать на такое!
Ок КЭП!
Ты позаходи в профили ;-) Особенно ТЕХ кто сейчас в данной раздаче первыми в статистике стоят! Они ни одного фильма не раздают, только качают!
...А потом будешь умничать! te

Создавать темы 21-Апр-2013 20:14

[Профиль]  [ЛС] 

konstantin19

Стаж: 5 лет 1 месяц

Сообщений: 3

Круто классный фильм буду качать и раздавать тоже хорошо буду =)
Качаем фильм реально классный

Создавать темы 21-Апр-2013 20:27

[Профиль]  [ЛС] 

nigina4u

Стаж: 5 лет 3 месяца

Сообщений: 31

а можно оригинальную дорожку добавить пожалуйста????

Создавать темы 21-Апр-2013 21:35

[Профиль]  [ЛС] 

farrux_2482

Стаж: 4 года 9 месяцев

Сообщений: 24

Симпатии: 2

Сидов: 6 [ 3 MB/s ] Личеров: 110 [ 999 KB/s ] а качаю по 1 кб/c ГДЕЕ СКОРОСТЬЬЬ*******??????????????????

Создавать темы 21-Апр-2013 22:54

[Профиль]  [ЛС] 

farrux_2482

Стаж: 4 года 9 месяцев

Сообщений: 24

Симпатии: 2

подключонных сидов 2 из 5 ..... где совесть???? не обманывайте народ что скорость разжачи до 3 мб/c

Создавать темы 21-Апр-2013 22:58

[Профиль]  [ЛС] 

xumoyun2550

Стаж: 5 лет 11 месяцев

Сообщений: 98

Симпатии: 2

А НИ Качество: HDTVRip

Создавать темы 21-Апр-2013 23:01

[Профиль]  [ЛС] 
Показать сообщения:    
Ответить на тему

Текущее время: 16-Дек 02:52

Часовой пояс: UTC + 5



Вы не можете начинать темы
Вы не можете отвечать на сообщения
Вы не можете редактировать свои сообщения
Вы не можете удалять свои сообщения
Вы не можете голосовать в опросах
Вы не можете прикреплять файлы к сообщениям
Вы не можете скачивать файлы