Невозможное / Lo Imposible (Хуан Антонио Байона) [2012 г., драма, BDRip 720p]

Ответить на тему
 

ziyod ®

Стаж: 7 лет 9 месяцев

Сообщений: 367

Симпатии: 60

-Невозможное / Lo Imposible-«Nothing is more powerful than the human spirit.»- Год выпуска: 2012
Страна: Испания
Жанр: драма
Продолжительность: 01:53:38
Перевод: Профессиональный (полное дублирование)
Режиссер: Хуан Антонио Байона / Juan Antonio Bayona
Сценарий: Серхио Х. Санчес / Sergio G. Sánchez, Мария Белон / María Belón
Продюсер: Белен Атьенца / Belén Atienza, Альваро Аугустин / Álvaro Augustín, Гислен Баруа / Ghislain Barrois, Энрике Лопез Лавин / Enrique López Lavigne, Сандра Эрмида / Sandra Hermida
Оператор: Оскар Фаура / Óscar Faura
Композитор: Фернандо Веласкез / Fernando Velázquez
В ролях: Наоми Уоттс (Maria), Юэн МакГрегор (Henry), Том Холлэнд (Lucas), Сэмюэл Джослин (Thomas), Оакли Пендергаст (Simon), Марта Этура (Simone), Шенке Мёринг (Karl), Джеральдин Чаплин (Old Woman), Плой Хиндачоте (Caregiver), Жомжаои Сэ-Лим (Red Cross Nurse), Йохан Сандберг (Daniel), Жан Роланд Сандберг (Daniel's Father)
Дублёры: Людмила Шувалова (Maria), Сергей Бурунов (Henry), Лев Аксельрод (Lucas), Людмила Гнилова (Old Woman)--Бюджет: €30 000 000
Сборы в США: $16 939 000
Сборы в мире: $154 939 000
Мировая премьера: 9 сентября 2012-Описание: Лента о событиях, разворачивающихся на фоне цунами 2004 года.-Рейтинг
     
MPAA: PG-13 - Детям до 13 лет просмотр не желателен-Трейлер 1 Трейлер 2-Качество: BDRip
Формат: MKV
Видео: AVC; 1280x542 (2.35:1); 7041 Kbps; 24 fps; 0,423 bpp
Аудио: русский; AC3; 448 Kbps; CBR; 6 ch; 16 bit
Субтитры: английские-

Знаете ли Вы, что...

  • Многие актеры массовки - это люди, выжившие после цунами.
  • Наоми Уоттс и Юэн МакГрегор ранее уже играли персонажей, состоящих в отношениях, в фильме «Останься» (2005).
  • На кинофестивале в Торонто в 2012 году герои фильма встретились со своими прототипами из реальной жизни - семьей, которая выжила после цунами, на чьей истории и основан фильм.
  • Этот фильм был одним из последних фильмов испанской студии «Ciudad de la Luz» (City of Light). В октябре 2012 года она объявила о своем закрытии.
  • На самом деле семья, по образу которой созданы персонажи этого фильма, это семья испанцев, жившая в Японии во время цунами.
  • По словам Наоми Уоттс продюсеры фильма услышали интервью по испанскому радио, в котором семья рассказывала свою историю о том, как они пережили цунами, и решили снять по ней фильм.
  • Когда Даниэль встречает своего отца, тот обращается к нему по-шведски, произнося его имя как «Йохан». Настоящее имя актера сыгравшего роль Даниэля - Йохан Сандберг, а актер, игравший его отца, это его настоящий отец - Жан Роланд Сандберг.
  • Когда Лукас разговаривает со шведом, который отчаянно пытается найти своего сына, он берет ручку и начинает писать имя мальчика левой рукой, но в следующем кадре он пишет его уже правой рукой.
-

MI

General
Unique ID                                : 178528706808420996763124213242124918423 (0x864F60D42C598FFEB4575E700ECD5E97)
Complete name                            : E:\Done\Video\Films\Nevozmojnoe.2012.D.BDRip.720p.mkv
Format                                   : Matroska
Format version                           : Version 4 / Version 2
File size                                : 6.07 GiB
Duration                                 : 1h 53mn
Overall bit rate                         : 7 641 Kbps
Encoded date                             : UTC 2013-04-22 01:25:03
Writing application                      : mkvmerge v6.0.0 ('Coming Up For Air') built on Jan 20 2013 09:52:00
Writing library                          : libebml v1.3.0 + libmatroska v1.4.0
Video
ID                                       : 1
Format                                   : AVC
Format/Info                              : Advanced Video Codec
Format profile                           : [email protected]
Format settings, CABAC                   : Yes
Format settings, ReFrames                : 11 frames
Codec ID                                 : V_MPEG4/ISO/AVC
Duration                                 : 1h 53mn
Bit rate                                 : 7 041 Kbps
Width                                    : 1 280 pixels
Height                                   : 542 pixels
Display aspect ratio                     : 2.35:1
Frame rate mode                          : Constant
Frame rate                               : 24.000 fps
Color space                              : YUV
Chroma subsampling                       : 4:2:0
Bit depth                                : 8 bits
Scan type                                : Progressive
Bits/(Pixel*Frame)                       : 0.423
Stream size                              : 5.59 GiB (92%)
Writing library                          : x264 core 129 r2245 bc13772
Encoding settings                        : cabac=1 / ref=11 / deblock=1:-3:-3 / analyse=0x3:0x113 / me=tesa / subme=9 / psy=1 / psy_rd=0.95:0.00 / mixed_ref=1 / me_range=16 / chroma_me=1 / trellis=2 / 8x8dct=1 / cqm=0 / deadzone=21,11 / fast_pskip=0 / chroma_qp_offset=-2 / threads=12 / lookahead_threads=2 / sliced_threads=0 / nr=0 / decimate=0 / interlaced=0 / bluray_compat=0 / constrained_intra=0 / bframes=10 / b_pyramid=2 / b_adapt=2 / b_bias=0 / direct=3 / weightb=1 / open_gop=0 / weightp=2 / keyint=250 / keyint_min=24 / scenecut=40 / intra_refresh=0 / rc=crf / mbtree=0 / crf=15.5 / qcomp=0.50 / qpmin=0 / qpmax=69 / qpstep=4 / ip_ratio=1.40 / pb_ratio=1.30 / aq=1:0.70
Language                                 : English
Default                                  : No
Forced                                   : No
Matrix coefficients                      : BT.709
Audio
ID                                       : 2
Format                                   : AC-3
Format/Info                              : Audio Coding 3
Mode extension                           : CM (complete main)
Format settings, Endianness              : Big
Codec ID                                 : A_AC3
Duration                                 : 1h 53mn
Bit rate mode                            : Constant
Bit rate                                 : 448 Kbps
Channel(s)                               : 6 channels
Channel positions                        : Front: L C R, Side: L R, LFE
Sampling rate                            : 48.0 KHz
Bit depth                                : 16 bits
Compression mode                         : Lossy
Delay relative to video                  : 1s 100ms
Stream size                              : 364 MiB (6%)
Title                                    : DUB
Language                                 : Russian
Default                                  : Yes
Forced                                   : No
Text
ID                                       : 3
Format                                   : UTF-8
Codec ID                                 : S_TEXT/UTF8
Codec ID/Info                            : UTF-8 Plain Text
Title                                    : English
Language                                 : English
Default                                  : No
Forced                                   : No
Menu
00:00:00.000                             : en:00:00:00.000
00:07:10.292                             : en:00:07:10.292
00:12:50.875                             : en:00:12:50.875
00:21:20.250                             : en:00:21:20.250
00:27:02.625                             : en:00:27:02.625
00:31:59.083                             : en:00:31:59.083
00:38:13.792                             : en:00:38:13.792
00:44:35.833                             : en:00:44:35.833
00:51:09.125                             : en:00:51:09.125
00:56:24.042                             : en:00:56:24.042
01:03:24.583                             : en:01:03:24.583
01:10:14.500                             : en:01:10:14.500
01:15:27.292                             : en:01:15:27.292
01:23:51.083                             : en:01:23:51.083
01:36:00.500                             : en:01:36:00.500
-

Скриншоты



Создавать темы 22-Апр-2013 07:11

[Профиль]  [ЛС] 

андрей10

Стаж: 4 года 8 месяцев

Сообщений: 2

классный фильм

Создавать темы 02-Май-2013 14:48

[Профиль]  [ЛС] 

Cupola

Стаж: 7 лет

Сообщений: 31

Симпатии: 4

Дайте докачать плиз.

Создавать темы 17-Июн-2013 12:10

[Профиль]  [ЛС] 
Показать сообщения:    
Ответить на тему

Текущее время: 12-Дек 06:00

Часовой пояс: UTC + 5



Вы не можете начинать темы
Вы не можете отвечать на сообщения
Вы не можете редактировать свои сообщения
Вы не можете удалять свои сообщения
Вы не можете голосовать в опросах
Вы не можете прикреплять файлы к сообщениям
Вы не можете скачивать файлы