Джек Ричер / Jack Reacher [2012 г., Боевик, триллер, криминал] [BDRip] [Лицензия]

Ответить на тему
 

Suxrob89 ®

Стаж: 7 лет

Сообщений: 933

Симпатии: 564

-Джек Ричер / Jack Reacher-«У закона есть пределы. У него их нет»- Страна: США
Жанр: боевик, триллер, криминал, детектив
Год выпуска: 2012
Продолжительность: 02:10:24
Перевод: Дублированный [лицензия]
Cубтитры: нет-Режиссер: Кристофер МакКуорри / Christopher McQuarrie-В ролях: Том Круз, Розамунд Пайк, Ричард Дженкинс, Вернер Херцог, Дэвид Ойелоуо, Роберт Дюваль, Джей Кортни, Владимир Сизов, Джозеф Сикора, Майкл Рэймонд-Джеймс-Описание: Снайпер убивает пять случайных прохожих, но все улики указывают на человека, заключенного под стражу. На допросе подозреваемый умоляет об одном — найти Джека Ричера.- -Качество видео: BDRip
Видеокодек: H.264
Битрейт видео: 23,976 fps, 1501 Кbps, 0.136 bit/pixel
Размер кадра: 1040x442
Битрейт аудио 1: 48 kHz, AC3 Dolby Digital, 3/2 (L,C,R,l,r) + LFE ch, ~448.00 kbps avg (Русский дублированный)
Битрейт аудио 2: 48 kHz, AC3 Dolby Digital, 3/2 (L,C,R,l,r) + LFE ch, ~448.00 kbps avg (Оригинальный английский)

MediaInfo

G:\Джек Ричер (2012) (BDRip).mkv
General
Complete name : G:\Джек Ричер (2012) (BDRip).mkv
Format : Matroska
File size : 2.18 GiB
Duration : 2h 10mn
Overall bit rate : 2 398 Kbps
Movie name : -=POTROKS=-
Encoded date : UTC 2013-04-20 16:04:12
Writing application : mkvmerge v5.9.0 ('On The Loose') built on Dec 15 2012 16:39:58
Writing library : libebml v1.3.0 + libmatroska v1.4.0
Video #1
ID : 1
Format : AVC
Format/Info : Advanced Video Codec
Format profile : [email protected]
Format settings, CABAC : Yes
Format settings, ReFrames : 11 frames
Muxing mode : Container [email protected]
Codec ID : V_MPEG4/ISO/AVC
Duration : 2h 10mn
Bit rate : 1 501 Kbps
Width : 1 040 pixels
Height : 442 pixels
Display aspect ratio : 2.35:1
Frame rate : 23.976 fps
Color space : YUV
Chroma subsampling : 4:2:0
Bit depth : 8 bits
Scan type : Progressive
Bits/(Pixel*Frame) : 0.136
Stream size : 1.32 GiB (61%)
Title : Jack Reacher
Writing library : x264 core 125 r2208 d9d2288
Encoding settings : cabac=1 / ref=11 / deblock=1:-3:3 / analyse=0x3:0x133 / me=umh / subme=11 / psy=1 / psy_rd=0.95:0.00 / mixed_ref=1 / me_range=32 / chroma_me=1 / trellis=2 / 8x8dct=1 / cqm=0 / deadzone=21,11 / fast_pskip=0 / chroma_qp_offset=-2 / threads=6 / lookahead_threads=1 / sliced_threads=0 / nr=0 / decimate=1 / interlaced=0 / bluray_compat=0 / constrained_intra=0 / bframes=12 / b_pyramid=2 / b_adapt=2 / b_bias=0 / direct=3 / weightb=1 / open_gop=0 / weightp=2 / keyint=240 / keyint_min=23 / scenecut=40 / intra_refresh=0 / rc_lookahead=150 / rc=2pass / mbtree=1 / bitrate=1501 / ratetol=1.0 / qcomp=0.70 / qpmin=0 / qpmax=69 / qpstep=4 / cplxblur=20.0 / qblur=0.5 / vbv_maxrate=20000 / vbv_bufsize=20000 / nal_hrd=none / ip_ratio=1.35 / aq=1:1.00
Language : English
Audio #2
ID : 2
Format : AC-3
Format/Info : Audio Coding 3
Mode extension : CM (complete main)
Codec ID : A_AC3
Duration : 2h 10mn
Bit rate mode : Constant
Bit rate : 448 Kbps
Channel(s) : 6 channels
Channel positions : Front: L C R, Side: L R, LFE
Sampling rate : 48.0 KHz
Bit depth : 16 bits
Stream size : 418 MiB (19%)
Title : Dub | DD 5.1 @ 448 kbps
Language : Russian
Audio #3
ID : 3
Format : AC-3
Format/Info : Audio Coding 3
Mode extension : CM (complete main)
Codec ID : A_AC3
Duration : 2h 10mn
Bit rate mode : Constant
Bit rate : 448 Kbps
Channel(s) : 6 channels
Channel positions : Front: L C R, Side: L R, LFE
Sampling rate : 48.0 KHz
Bit depth : 16 bits
Stream size : 418 MiB (19%)
Title : Original | DD 5.1 @ 448 kbps
Language : English
Text #4
ID : 4
Format : UTF-8
Codec ID : S_TEXT/UTF8
Codec ID/Info : UTF-8 Plain Text
Title : SDH.COLORED
Language : English
Text #5
ID : 5
Format : UTF-8
Codec ID : S_TEXT/UTF8
Codec ID/Info : UTF-8 Plain Text
Title : SDH
Language : English
Text #6
ID : 6
Format : UTF-8
Codec ID : S_TEXT/UTF8
Codec ID/Info : UTF-8 Plain Text
Title : Full
Language : English

Скриншот c названием фильма

Скриншоты

Создавать темы 23-Апр-2013 07:21

[Профиль]  [ЛС] 

guf.guf

Стаж: 4 года 9 месяцев

Сообщений: 38

Симпатии: 18

Автор mail скинь пожалуйста!

Создавать темы 23-Апр-2013 08:31

[Профиль]  [ЛС] 

Топик был перенесен из форума Фильмы за 2013 (новинки) в форум HD-AVC

Mixer City

Создавать темы 23-Апр-2013 12:46

 

oskar.uz

Стаж: 5 лет 4 месяца

Сообщений: 42

Симпатии: 2

Дайте скорости ребята!

Создавать темы 23-Апр-2013 14:36

[Профиль]  [ЛС] 

sher3od

Стаж: 4 года 9 месяцев

Сообщений: 41

Симпатии: 3

Это точна лицуха?

Создавать темы 24-Апр-2013 07:54

[Профиль]  [ЛС] 

alx777

Стаж: 5 лет 6 месяцев

Сообщений: 87

Симпатии: 8

Это точна лицуха?
это студийная версия звука с которого будут делать звук для Blu-Ray и DVD, это как бэ пролицензия

Создавать темы 24-Апр-2013 08:15

[Профиль]  [ЛС] 

mirzo19

Стаж: 4 года 6 месяцев

Сообщений: 5

филмь ништяк!!!

Создавать темы 06-Июл-2013 17:41

[Профиль]  [ЛС] 
Показать сообщения:    
Ответить на тему

Текущее время: 20-Авг 22:27

Часовой пояс: UTC + 5



Вы не можете начинать темы
Вы не можете отвечать на сообщения
Вы не можете редактировать свои сообщения
Вы не можете удалять свои сообщения
Вы не можете голосовать в опросах
Вы не можете прикреплять файлы к сообщениям
Вы не можете скачивать файлы