Белый лебедь / Assassins Run (Роберт Кромби / Robert Crombie) [2013, США, Россия, боевик, триллер, криминал, DVDRip]

Ответить на тему
 

Suxrob89 ®

Стаж: 7 лет 4 месяца

Сообщений: 933

Симпатии: 564

-Белый лебедь / Assassins Run- Страна: США, Россия
Жанр: боевик, триллер, криминал
Год выпуска: 2013
Продолжительность: 01:28:07
Перевод: Любительский (двухголосый закадровый)
Cубтитры: нет-Режиссер: Роберт Кромби / Robert Crombie-В ролях: Кристиан Слэйтер, Софья Ская, Коул Хаузер, Энгус МакФадьен, Марианна Халифман, Светлана Цвиченко, Александр Рапопорт-Описание: История прима-балерины, ее американского мужа и их маленькой дочери Нины. «Человек без лица», маньяк-психопат Роман, старается разрушить счастливую жизнь семьи. Герой Слейтера погибает при таинственных обстоятельствах. Майю, красивую русскую балерину, начинает преследовать мафия. Коррумпированные полицейские сажают девушку в тюрьму, а когда приходит время освобождения, ей предстоит вступить в борьбу за жизнь похищенной дочери.- -Качество видео: DVDRip
Формат видео: AVI
Видео: 640x352 (1.82:1), 23.976 fps, XviD build 50 ~1043 kbps avg, 0.19 bit/pixel
Аудио: 48 kHz, MPEG Layer 3, 2 ch, ~128.00 kbps avg-

MediaInfo

G:\Assassins.Run.2013.P.DVDRip.745MB.avi
General
Complete name : G:\Assassins.Run.2013.P.DVDRip.745MB.avi
Format : AVI
Format/Info : Audio Video Interleave
File size : 744 MiB
Duration : 1h 28mn
Overall bit rate : 1 181 Kbps
Writing application : VirtualDubMod 1.5.10.3 | www.virtualdub-fr.org || (build 2550/release)
Writing library : VirtualDubMod build 2550/release
Video #0
ID : 0
Format : MPEG-4 Visual
Format profile : Advanced [email protected]
Format settings, BVOP : Yes
Format settings, QPel : No
Format settings, GMC : No warppoints
Format settings, Matrix : Default (MPEG)
Codec ID : XVID
Codec ID/Hint : XviD
Duration : 1h 28mn
Bit rate : 1 043 Kbps
Width : 640 pixels
Height : 352 pixels
Display aspect ratio : 16:9
Frame rate : 23.976 fps
Color space : YUV
Chroma subsampling : 4:2:0
Bit depth : 8 bits
Scan type : Progressive
Bits/(Pixel*Frame) : 0.193
Stream size : 658 MiB (88%)
Writing library : XviD 1.2.1 (UTC 2008-12-04)
Audio #1
ID : 1
Format : MPEG Audio
Format version : Version 1
Format profile : Layer 3
Codec ID : 55
Codec ID/Hint : MP3
Duration : 1h 28mn
Bit rate mode : Constant
Bit rate : 128 Kbps
Channel(s) : 2 channels
Sampling rate : 48.0 KHz
Stream size : 80.7 MiB (11%)
Alignment : Aligned on interleaves
Interleave, duration : 42 ms (1.00 video frame)
Interleave, preload duration : 504 ms
Writing library : LAME3.98r
Encoding settings : -m s -V 4 -q 2 -lowpass 17 -b 128

Скриншот c названием фильма

Скриншоты



Последний раз редактировалось: Suxrob89 (2013-04-23 15:55), всего редактировалось 1 раз

Создавать темы 23-Апр-2013 15:36

[Профиль]  [ЛС] 

.::{LMFAO}::.

Стаж: 5 лет 1 месяц

Сообщений: 16

Симпатии: 1

помогу с раздачей

Создавать темы 23-Апр-2013 17:05

[Профиль]  [ЛС] 

ASUS F5

Стаж: 5 лет 7 месяцев

Сообщений: 58

Симпатии: 3

помогу с раздачей
я тоже

Создавать темы 23-Апр-2013 19:19

[Профиль]  [ЛС] 

mansurjon

Стаж: 7 лет 7 месяцев

Сообщений: 103

Симпатии: 3

ну и перевод
Белый лебедь / Assassins Run

Создавать темы 23-Апр-2013 23:31

[Профиль]  [ЛС] 

Laki

Стаж: 5 лет 8 месяцев

Сообщений: 49

Симпатии: 4

Классный фильм. СПАСИБО

Создавать темы 24-Апр-2013 14:49

[Профиль]  [ЛС] 

LanceR

Стаж: 5 лет 3 месяца

Сообщений: 63

Симпатии: 1

Спс Автору!!!!!!!

Создавать темы 24-Апр-2013 18:34

[Профиль]  [ЛС] 

nepomne

Стаж: 4 года 9 месяцев

Сообщений: 7

ждем лицензионного звука))) *

Создавать темы 27-Апр-2013 21:26

[Профиль]  [ЛС] 

CVX

Стаж: 6 лет 6 месяцев

Сообщений: 21

Симпатии: 4

люди пардон что умничаю,но с чего вдруг Assassins run(Бегущий убийцы\убийцы бегут промт подсказал хД)переводится как белый лебедь ;-)

Создавать темы 29-Апр-2013 17:58

[Профиль]  [ЛС] 

soxa

Стаж: 5 лет 2 месяца

Сообщений: 155

Симпатии: 21

мне понравилось bs

Создавать темы 29-Апр-2013 22:09

[Профиль]  [ЛС] 

Jnec

Стаж: 5 лет 1 месяц

Сообщений: 165

Спасибо!!!!

Создавать темы 01-Май-2013 13:16

[Профиль]  [ЛС] 
Показать сообщения:    
Ответить на тему

Текущее время: 17-Дек 09:03

Часовой пояс: UTC + 5



Вы не можете начинать темы
Вы не можете отвечать на сообщения
Вы не можете редактировать свои сообщения
Вы не можете удалять свои сообщения
Вы не можете голосовать в опросах
Вы не можете прикреплять файлы к сообщениям
Вы не можете скачивать файлы