Самый красный мокасин (PSY - GENTLEMAN parody) [2013 г., Parody, 1080p Full HD ]

Ответить на тему
 

umid-TK ®

Стаж: 4 года 9 месяцев

Сообщений: 21

Самый красный мокасин (PSY - GENTLEMAN parody) -Жанр: Пародия
Год издания: 2013
Продолжительность: 00:02:10
Канал УСПЕШНОЙ ГРУППЫ - http://www.youtube.com/DLGreez
Группа - http://vk.com/thebestshow
Автор - http://vk.com/d.l.greez
#ДавайЛайма: http://www.youtube.com/DavayLayma
Sound by KeaM - http://vk.com/soundbykeamКачество: HDTV

MediaInfo

Формат: MPEG
Видео кодек: Другой MPEG4
Видео: Идентификатор : 1 Формат : AVC Формат/Информация : Advanced Video Codec Профиль формата : [email protected] Параметр CABAC формата : Да Параметр ReFrames формата : 1 кадр Идентификатор кодека : avc1 Идентификатор кодека/Информация : Advanced Video Coding Продолжительность : 3 м. 53 с. Битрейт : 5469 Кбит/сек Максимальный битрейт : 10,4 Мбит/сек Ширина : 1920 пикселей Высота : 1080 пикселей Соотношение сторон : 16:9 Режим частоты кадров : Постоянный Частота кадров : 23,976 кадра/сек Цветовое пространство : YUV Субдискретизация насыщенности : 4:2:0 Битовая глубина : 8 бит Тип развёртки : Прогрессивная Бит/(Пиксели*Кадры) : 0.110 Размер потока : 152 Мбайт (97%) Дата пометки : UTC 2013-04-12 11:27:56
Аудио: Идентификатор : 2 Формат : AAC Формат/Информация : Advanced Audio Codec Профиль формата : LC Идентификатор кодека : 40 Продолжительность : 3 м. 53 с. Вид битрейта : Переменный Битрейт : 192 Кбит/сек Максимальный битрейт : 201 Кбит/сек Каналы : 2 канала Расположение каналов : Front: L R Частота : 44,1 КГц Метод сжатия : С потерями Размер потока : 5,34 Мбайт (3%) Заголовок : IsoMedia File Produced by Google, 5-11-2011 Дата кодирования : UTC 2013-04-12 11:27:55 Дата пометки : UTC 2013-04-12 11:27:56

Скриншоты



Создавать темы 23-Апр-2013 23:21

[Профиль]  [ЛС] 

residentevil

Стаж: 4 года 8 месяцев

Сообщений: 5

супер

Создавать темы 13-Июн-2013 16:35

[Профиль]  [ЛС] 
Показать сообщения:    
Ответить на тему

Текущее время: 19-Ноя 21:06

Часовой пояс: UTC + 5



Вы не можете начинать темы
Вы не можете отвечать на сообщения
Вы не можете редактировать свои сообщения
Вы не можете удалять свои сообщения
Вы не можете голосовать в опросах
Вы не можете прикреплять файлы к сообщениям
Вы не можете скачивать файлы