Путешествия Гулливера / Gulliver's Travels (Чарлз Стерридж / Charles Sturridge) [1996, приключения, драма, DVDRip-AVC] DVO + 2xAVO (Алексеев, Карцев) + Eng + Sub

Ответить на тему
 

Gainer ®

Стаж: 5 лет 3 месяца

Сообщений: 28

Путешествия Гулливера / Gulliver's Travels Год выпуска: 1996
Страна: США, Великобритания
Жанр: драма, приключения
Продолжительность: 02:59:20 (01:29:22 + 01:29:58)
Перевод #1: профессиональный двухголосый закадровый
Перевод #2: авторский (Карцев)
Перевод #3: авторский (Алексеев)
Русские субтитры: есть
Навигация по главам: есть-Режиссер: Чарлз Стерридж / Charles Sturridge
В ролях: Тед Дэнсон, Мэри Стинберген, Джеймс Фокс, Нед Битти, Эдвард Фокс, Роберт Харди, Николас Линдхерст, Фиби Николлс, Керин Парсонс, Эдвард Петербридж
Описание: Он был великаном в Стране Лилипутов и лилипутом в Стране Великанов. Он в одиночку сражался с вражеским флотом и гигантскими осами. Он побывал на Летающем острове ученых и в Стране Говорящих Лошадей. Он разговаривал с духами мертвых и едва не обрел бессмертие... И единственным человеком, поверившим во все это, был его сын.-Качество: DVDRip ( Исходник - DVD9 , огромное cпасибо PUNCHLINE79797 )
Формат: MKV
Видеокодек: AVC, x264 L4.1
Аудиокодек: AC3
Видео: 712x572 @ 762x572; DAR 4:3; 25 fps; 2200 Kbps
Аудио #1: Русский; AC3; 6 Ch; 48.0 KHz; 448 Kbps; | DVO
Аудио #2: Русский; AC3; 2 Ch; 48.0 KHz; 192 Kbps; | AVO (Карцев)
Аудио #3: Русский; AC3; 2 Ch; 48.0 KHz; 192 Kbps; | AVO (Алексеев)
Аудио #4: Английский; AC3; 6 Ch; 48.0 KHz; 448 Kbps; | Оригинал
Субтитры: Русские; VobSub

Русские субтитры в формате SRT

http://subs.com.ru/page.php?id=9876
-

Скриншоты






МедиаИнфо

General
Complete name : E:\MyRazd\Gulliver's Travels.1996.DVDRip.x264\Gulliver's Travels.part 1.1996.DVDRip.x264.mkv
Format : Matroska
File size : 2.17 GiB
Duration : 1h 29mn
Overall bit rate : 3 484 Kbps
Movie name : Gulliver's Travels.part 1.1996.DVDRip.x264.mkv [by pan29]
Encoded date : UTC 2011-07-03 07:31:20
Writing application : mkvmerge v3.2.0 ('Beginnings') built on Feb 12 2010 16:46:17
Writing library : libebml v0.7.9 + libmatroska v0.8.1
Video
ID : 1
Format : AVC
Format/Info : Advanced Video Codec
Format profile : [email protected]
Format settings, CABAC : Yes
Format settings, ReFrames : 15 frames
Muxing mode : Container [email protected]
Codec ID : V_MPEG4/ISO/AVC
Duration : 1h 29mn
Bit rate : 2 134 Kbps
Nominal bit rate : 2 200 Kbps
Width : 712 pixels
Height : 572 pixels
Display aspect ratio : 4:3
Frame rate : 25.000 fps
Resolution : 24 bits
Colorimetry : 4:2:0
Scan type : Progressive
Bits/(Pixel*Frame) : 0.210
Stream size : 1.33 GiB (61%)
Title : Gulliver's Travels.part 1.1996
Writing library : x264 core 115 r1937 aa21558
Encoding settings : cabac=1 / ref=15 / deblock=1:-1:-1 / analyse=0x3:0x113 / me=umh / subme=9 / psy=1 / psy_rd=1.00:0.10 / mixed_ref=1 / me_range=24 / chroma_me=1 / trellis=2 / 8x8dct=1 / cqm=0 / deadzone=21,11 / fast_pskip=0 / chroma_qp_offset=-3 / threads=3 / sliced_threads=0 / nr=0 / decimate=0 / interlaced=0 / bluray_compat=0 / constrained_intra=0 / bframes=12 / b_pyramid=2 / b_adapt=2 / b_bias=0 / direct=3 / weightb=1 / open_gop=0 / weightp=2 / keyint=250 / keyint_min=25 / scenecut=40 / intra_refresh=0 / rc_lookahead=40 / rc=2pass / mbtree=0 / bitrate=2200 / ratetol=1.0 / qcomp=0.70 / qpmin=0 / qpmax=69 / qpstep=4 / cplxblur=20.0 / qblur=0.5 / vbv_maxrate=50000 / vbv_bufsize=50000 / nal_hrd=none / ip_ratio=1.40 / pb_ratio=1.30 / aq=1:1.00
Language : English
Audio #1
ID : 2
Format : AC-3
Format/Info : Audio Coding 3
Codec ID : A_AC3
Duration : 1h 29mn
Bit rate mode : Constant
Bit rate : 448 Kbps
Channel(s) : 6 channels
Channel positions : Front: L C R, Surround: L R, LFE
Sampling rate : 48.0 KHz
Stream size : 286 MiB (13%)
Title : DVO
Language : Russian
Audio #2
ID : 3
Format : AC-3
Format/Info : Audio Coding 3
Codec ID : A_AC3
Duration : 1h 29mn
Bit rate mode : Constant
Bit rate : 192 Kbps
Channel(s) : 2 channels
Channel positions : L R
Sampling rate : 48.0 KHz
Stream size : 123 MiB (6%)
Title : AVO (Karcev)
Language : Russian
Audio #3
ID : 4
Format : AC-3
Format/Info : Audio Coding 3
Codec ID : A_AC3
Duration : 1h 29mn
Bit rate mode : Constant
Bit rate : 192 Kbps
Channel(s) : 2 channels
Channel positions : L R
Sampling rate : 48.0 KHz
Stream size : 123 MiB (6%)
Title : AVO (Alekseev)
Language : Russian
Audio #4
ID : 5
Format : AC-3
Format/Info : Audio Coding 3
Codec ID : A_AC3
Duration : 1h 29mn
Bit rate mode : Constant
Bit rate : 448 Kbps
Channel(s) : 6 channels
Channel positions : Front: L C R, Surround: L R, LFE
Sampling rate : 48.0 KHz
Stream size : 286 MiB (13%)
Title : Original
Language : English
Text
ID : 6
Format : VobSub
Codec ID : S_VOBSUB
Codec ID/Info : The same subtitle format used on DVDs
Language : Russian
Menu
00:00:00.000 : ru:01. Начало 1 части
00:01:42.240 : ru:02. Возвращение
00:05:17.280 : ru:03. Страшная находка
00:13:26.400 : ru:04. Проверка на жестокость
00:18:28.800 : ru:05. Знакомство с Мильендо
00:27:11.040 : ru:06. Вредные рассказы
00:28:46.560 : ru:07. Военный парад
00:32:47.040 : ru:08. Победа над врагом
00:39:03.360 : ru:09. Спасение императрицы
00:42:28.800 : ru:10. Друг навсегда
00:48:34.080 : ru:11. К новым берегам
00:50:22.080 : ru:12. Находка в поле
00:53:50.880 : ru:13. Дух кукурузных полей
00:56:32.640 : ru:14. Прибытие во дворец
00:59:11.040 : ru:15. В руках врачей
01:02:55.680 : ru:16. Страна Великанов
01:08:16.680 : ru:17. Хвала прогрессу
01:13:14.400 : ru:18. Порох
01:16:15.840 : ru:19. Зависть
01:23:53.280 : ru:20. Прощай, Глам!
01:27:11.520 : ru:21. Заключение 1 части-General
Complete name : E:\MyRazd\Gulliver's Travels.1996.DVDRip.x264\Gulliver's Travels.part 2.1996.DVDRip.x264.mkv
Format : Matroska
File size : 2.19 GiB
Duration : 1h 29mn
Overall bit rate : 3 483 Kbps
Movie name : Gulliver's Travels.part 2.1996.DVDRip.x264.mkv [by pan29]
Encoded date : UTC 2011-07-03 07:33:38
Writing application : mkvmerge v3.2.0 ('Beginnings') built on Feb 12 2010 16:46:17
Writing library : libebml v0.7.9 + libmatroska v0.8.1
Video
ID : 1
Format : AVC
Format/Info : Advanced Video Codec
Format profile : [email protected]
Format settings, CABAC : Yes
Format settings, ReFrames : 15 frames
Muxing mode : Container [email protected]
Codec ID : V_MPEG4/ISO/AVC
Duration : 1h 29mn
Bit rate : 2 134 Kbps
Nominal bit rate : 2 200 Kbps
Width : 712 pixels
Height : 572 pixels
Display aspect ratio : 4:3
Frame rate : 25.000 fps
Resolution : 24 bits
Colorimetry : 4:2:0
Scan type : Progressive
Bits/(Pixel*Frame) : 0.210
Stream size : 1.34 GiB (61%)
Title : Gulliver's Travels.part 2.1996
Writing library : x264 core 115 r1937 aa21558
Encoding settings : cabac=1 / ref=15 / deblock=1:-1:-1 / analyse=0x3:0x113 / me=umh / subme=9 / psy=1 / psy_rd=1.00:0.10 / mixed_ref=1 / me_range=24 / chroma_me=1 / trellis=2 / 8x8dct=1 / cqm=0 / deadzone=21,11 / fast_pskip=0 / chroma_qp_offset=-3 / threads=3 / sliced_threads=0 / nr=0 / decimate=0 / interlaced=0 / bluray_compat=0 / constrained_intra=0 / bframes=12 / b_pyramid=2 / b_adapt=2 / b_bias=0 / direct=3 / weightb=1 / open_gop=0 / weightp=2 / keyint=250 / keyint_min=25 / scenecut=40 / intra_refresh=0 / rc_lookahead=40 / rc=2pass / mbtree=0 / bitrate=2200 / ratetol=1.0 / qcomp=0.70 / qpmin=0 / qpmax=69 / qpstep=4 / cplxblur=20.0 / qblur=0.5 / vbv_maxrate=50000 / vbv_bufsize=50000 / nal_hrd=none / ip_ratio=1.40 / pb_ratio=1.30 / aq=1:1.00
Language : English
Audio #1
ID : 2
Format : AC-3
Format/Info : Audio Coding 3
Codec ID : A_AC3
Duration : 1h 29mn
Bit rate mode : Constant
Bit rate : 448 Kbps
Channel(s) : 6 channels
Channel positions : Front: L C R, Surround: L R, LFE
Sampling rate : 48.0 KHz
Stream size : 288 MiB (13%)
Title : DVO
Language : Russian
Audio #2
ID : 3
Format : AC-3
Format/Info : Audio Coding 3
Codec ID : A_AC3
Duration : 1h 29mn
Bit rate mode : Constant
Bit rate : 192 Kbps
Channel(s) : 2 channels
Channel positions : L R
Sampling rate : 48.0 KHz
Stream size : 124 MiB (6%)
Title : AVO (Karcev)
Language : Russian
Audio #3
ID : 4
Format : AC-3
Format/Info : Audio Coding 3
Codec ID : A_AC3
Duration : 1h 29mn
Bit rate mode : Constant
Bit rate : 192 Kbps
Channel(s) : 2 channels
Channel positions : L R
Sampling rate : 48.0 KHz
Stream size : 124 MiB (6%)
Title : AVO (Alekseev)
Language : Russian
Audio #4
ID : 5
Format : AC-3
Format/Info : Audio Coding 3
Codec ID : A_AC3
Duration : 1h 29mn
Bit rate mode : Constant
Bit rate : 448 Kbps
Channel(s) : 6 channels
Channel positions : Front: L C R, Surround: L R, LFE
Sampling rate : 48.0 KHz
Stream size : 288 MiB (13%)
Title : Original
Language : English
Text
ID : 6
Format : VobSub
Codec ID : S_VOBSUB
Codec ID/Info : The same subtitle format used on DVDs
Language : Russian
Menu
00:00:00.000 : ru:01. Начало 2 части
00:01:31.680 : ru:02. Спасение на Лапуте
00:08:42.720 : ru:03. Остров мудрецов
00:14:09.120 : ru:04. Война
00:19:40.800 : ru:05. Дорога в Академию
00:28:44.160 : ru:06. Гостеприимство
00:33:44.160 : ru:07. Опыты историка
00:45:47.040 : ru:08. Обрети бессмертие!
00:51:00.000 : ru:09. Путь домой
00:53:24.000 : ru:10. Слушание
01:01:07.680 : ru:11. Гуигнгнмы
01:08:20.640 : ru:12. Племя Еху
01:11:42.240 : ru:13. Искушение
01:15:23.040 : ru:14. Приговор Гуигнгнмов
01:20:18.240 : ru:15. Правда и ложь
01:26:18.720 : ru:16. Заключение 2 части

x264 log

...last pass...
x264.exe: --pass 2 --bitrate 2200 --ref 15 --deblock -1:-1 --merange 24 --bframes 12 --direct auto --b-adapt 2 --trellis 2 --no-fast-pskip --no-dct-decimate --psy-rd 1.0:0.1 --qcomp 0.70 --vbv-bufsize 50000 --vbv-maxrate 50000 --partitions p8x8,b8x8,i4x4,i8x8 --subme 9 --me umh --no-mbtree --sar 198:185 --qpfile "1.qpf" --stats "E:\Main\part1.log" --output "E:\Main\part1.mkv" "E:\Temp\0039.avs"
avs [info]: 712x572p 198:185 @ 25/1 fps (cfr)
x264 [info]: using SAR=198/185
x264 [info]: using cpu capabilities: MMX2 SSE2Slow SlowCTZ
x264 [info]: profile High, level 4.1
x264 [info]: frame I:1064 Avg QP:16.76 size: 58610
x264 [info]: frame P:27569 Avg QP:19.99 size: 20757
x264 [info]: frame B:105418 Avg QP:21.48 size: 7961
x264 [info]: consecutive B-frames: 1.4% 1.5% 7.9% 19.0% 11.3% 52.1% 2.6% 3.0% 0.6% 0.2% 0.2% 0.0% 0.1%
x264 [info]: mb I I16..4: 6.6% 73.1% 20.2%
x264 [info]: mb P I16..4: 2.9% 18.2% 2.0% P16..4: 40.2% 22.8% 10.6% 0.0% 0.0% skip: 3.4%
x264 [info]: mb B I16..4: 0.4% 1.8% 0.2% B16..8: 37.8% 11.6% 2.9% direct:10.0% skip:35.2% L0:36.4% L1:43.8% BI:19.7%
x264 [info]: 8x8 transform intra:77.1% inter:63.0%
x264 [info]: direct mvs spatial:98.3% temporal:1.7%
x264 [info]: coded y,uvDC,uvAC intra: 81.5% 77.1% 44.4% inter: 31.8% 29.5% 7.1%
x264 [info]: i16 v,h,dc,p: 47% 10% 6% 36%
x264 [info]: i8 v,h,dc,ddl,ddr,vr,hd,vl,hu: 16% 12% 8% 7% 10% 13% 10% 12% 11%
x264 [info]: i4 v,h,dc,ddl,ddr,vr,hd,vl,hu: 17% 11% 5% 7% 12% 15% 11% 11% 11%
x264 [info]: i8c dc,h,v,p: 31% 24% 27% 17%
x264 [info]: Weighted P-Frames: Y:4.6% UV:2.2%
x264 [info]: ref P L0: 45.6% 13.8% 17.3% 4.7% 4.1% 2.9% 2.8% 1.5% 1.4% 1.2% 1.1% 0.9% 0.9% 0.8% 0.9% 0.1%
x264 [info]: ref B L0: 79.2% 10.4% 3.3% 1.7% 1.2% 1.0% 0.8% 0.5% 0.5% 0.4% 0.4% 0.3% 0.2% 0.1%
x264 [info]: ref B L1: 94.3% 5.7%
x264 [info]: kb/s:2198.93
x264 [total]: encoded 134051 frames, 2.58 fps, 2198.93 kb/s-...last pass...
x264.exe: --pass 2 --bitrate 2200 --ref 15 --deblock -1:-1 --merange 24 --bframes 12 --direct auto --b-adapt 2 --trellis 2 --no-fast-pskip --no-dct-decimate --psy-rd 1.0:0.1 --qcomp 0.70 --vbv-bufsize 50000 --vbv-maxrate 50000 --partitions p8x8,b8x8,i4x4,i8x8 --subme 9 --me umh --no-mbtree --sar 198:185 --qpfile "2.qpf" --stats "E:\Main\part2.New.log" --output "E:\Main\part2.New.mkv" "E:\Temp\0041.avs"
avs [info]: 712x572p 198:185 @ 25/1 fps (cfr)
x264 [info]: using SAR=198/185
x264 [info]: using cpu capabilities: MMX2 SSE2Slow SlowCTZ
x264 [info]: profile High, level 4.1
x264 [info]: frame I:987 Avg QP:16.84 size: 58485
x264 [info]: frame P:27990 Avg QP:20.42 size: 20588
x264 [info]: frame B:105974 Avg QP:21.79 size: 8016
x264 [info]: consecutive B-frames: 1.5% 2.0% 7.7% 18.6% 10.5% 52.3% 2.6% 3.7% 0.7% 0.2% 0.1% 0.1% 0.0%
x264 [info]: mb I I16..4: 6.1% 75.6% 18.3%
x264 [info]: mb P I16..4: 2.6% 19.8% 2.0% P16..4: 40.4% 22.6% 9.7% 0.0% 0.0% skip: 2.8%
x264 [info]: mb B I16..4: 0.3% 1.9% 0.2% B16..8: 38.5% 11.3% 2.8% direct:11.0% skip:33.9% L0:37.2% L1:44.2% BI:18.6%
x264 [info]: 8x8 transform intra:79.8% inter:64.6%
x264 [info]: direct mvs spatial:98.2% temporal:1.8%
x264 [info]: coded y,uvDC,uvAC intra: 83.4% 74.3% 37.2% inter: 34.0% 29.8% 5.9%
x264 [info]: i16 v,h,dc,p: 39% 12% 7% 43%
x264 [info]: i8 v,h,dc,ddl,ddr,vr,hd,vl,hu: 14% 12% 7% 8% 11% 13% 11% 12% 12%
x264 [info]: i4 v,h,dc,ddl,ddr,vr,hd,vl,hu: 14% 11% 4% 8% 13% 15% 12% 12% 11%
x264 [info]: i8c dc,h,v,p: 31% 25% 26% 18%
x264 [info]: Weighted P-Frames: Y:4.4% UV:1.8%
x264 [info]: ref P L0: 46.1% 15.0% 16.9% 4.8% 4.0% 2.8% 2.5% 1.4% 1.3% 1.1% 1.0% 0.9% 0.8% 0.7% 0.7% 0.1%
x264 [info]: ref B L0: 80.6% 9.8% 3.1% 1.6% 1.1% 0.9% 0.7% 0.5% 0.4% 0.4% 0.3% 0.3% 0.2% 0.1%
x264 [info]: ref B L1: 94.8% 5.2%
x264 [info]: kb/s:2198.59
x264 [total]: encoded 134951 frames, 2.56 fps, 2198.59 kb/s
-


Последний раз редактировалось: Gainer (2013-04-26 18:54), всего редактировалось 5 раз(а)

Создавать темы 24-Апр-2013 08:26

[Профиль]  [ЛС] 

Топик был перенесен из форума Зарубежное кино в форум HD-AVC

Mixer City

Создавать темы 24-Апр-2013 14:35

 
Показать сообщения:    
Ответить на тему

Текущее время: 23-Сен 12:37

Часовой пояс: UTC + 5



Вы не можете начинать темы
Вы не можете отвечать на сообщения
Вы не можете редактировать свои сообщения
Вы не можете удалять свои сообщения
Вы не можете голосовать в опросах
Вы не можете прикреплять файлы к сообщениям
Вы не можете скачивать файлы