Золотой теленок (Михаил Швейцер) [1968 г., Комедия, DVDRip-AVC]

Ответить на тему
 

dreamcetcher ®

Стаж: 5 лет 8 месяцев

Сообщений: 53

Симпатии: 1

Золотой теленок
Год выпуска: 1968
Жанр: Комедия
Продолжительность: 02:44:01
Режиссер: Михаил Швейцер
В ролях: Сергей Юрский, Леонид Куравлев, Зиновий Гердт, Евгений Евстигнеев, Светлана Старикова, Павел Винник, Игорь Ясулович, Раднэр Муратов, Тамара Семина, Николай Боярский, Константин Воинов, Дмитрий Орловский, Евгений Перов, Александра Денисова, Павел Павленко, Владимир Пицек, Николай Сергеев, Александр Январев, Игорь Кашинцев, Михаил Кокшенов, Евгений Гуров, Анатолий Обухов
Описание: «Великий комбинатор» Остап Бендер с детства мечтает о Рио-де-Жанейро. Ему известны множество способов «сравнительно честного отъема денег у граждан». Но — где же в Советской России найти гражданина, обладающего хотя бы полумиллионом рублей? И вот подпольный миллионер, выдающий себя за скромного служащего на нищенском жалованьи, найден.
И должен сам принести деньги Остапу «на блюдечке с голубой каемочкой». Как же великий комбинатор добьется этого? Сбудется ли мечта его детства? Об этом расскажет зрителю этот фильм с великолепным актерским ансамблем — Сергей Юрский, Леонид Куравлев, Зиновий Гердт, Евгений Евстигнеев…
Качество: DVDRip-AVC
Формат: AVI
Видео кодек: XviD
Аудио кодек: AC3
Видео: XviD; 720x320; 25.00fps; ~1 700 Kbps
Аудио: AC3; 2Ch; 48Hz; 192Kbps

MediaInfo

General
Complete name : E:\Films\Золотой теленок (1968)\01-Zolotoy telenok (1968).avi
Format : AVI
Format/Info : Audio Video Interleave
File size : 967 MiB
Duration : 1h 11mn
Overall bit rate : 1 901 Kbps
Writing application : VirtualDubModRus 1.5.10.2 (build 2542/release)
Writing library : VirtualDubMod build 2542/release
Video
ID : 0
Format : MPEG-4 Visual
Format profile : Advanced [email protected]
Format settings, BVOP : 2
Format settings, QPel : No
Format settings, GMC : No warppoints
Format settings, Matrix : Default (H.263)
Muxing mode : Packed bitstream
Codec ID : XVID
Codec ID/Hint : XviD
Duration : 1h 11mn
Bit rate : 1 699 Kbps
Width : 720 pixels
Height : 320 pixels
Display aspect ratio : 2.25:1
Frame rate : 25.000 fps
Color space : YUV
Chroma subsampling : 4:2:0
Bit depth : 8 bits
Scan type : Progressive
Compression mode : Lossy
Bits/(Pixel*Frame) : 0.295
Stream size : 865 MiB (89%)
Writing library : XviD 1.2.1 (UTC 2008-12-04)
Audio
ID : 1
Format : AC-3
Format/Info : Audio Coding 3
Format profile : Dolby Digital
Mode extension : CM (complete main)
Codec ID : 2000
Duration : 1h 11mn
Bit rate mode : Constant
Bit rate : 192 Kbps
Channel(s) : 2 channels
Channel positions : Front: L R
Sampling rate : 48.0 KHz
Bit depth : 16 bits
Compression mode : Lossy
Stream size : 97.7 MiB (10%)
Alignment : Aligned on interleaves
Interleave, duration : 40 ms (1.00 video frame)
Interleave, preload duration : 512 ms

Скриншоты





Создавать темы 24-Апр-2013 20:53

[Профиль]  [ЛС] 

VAG.ABAS

Стаж: 4 года 10 месяцев

Сообщений: 5

дайте раздачу,плиз

Создавать темы 15-Дек-2013 13:11

[Профиль]  [ЛС] 
Показать сообщения:    
Ответить на тему

Текущее время: 17-Авг 18:30

Часовой пояс: UTC + 5



Вы не можете начинать темы
Вы не можете отвечать на сообщения
Вы не можете редактировать свои сообщения
Вы не можете удалять свои сообщения
Вы не можете голосовать в опросах
Вы не можете прикреплять файлы к сообщениям
Вы не можете скачивать файлы