Абдулладжан, или Посвящается Стивену Спилбергу (Зульфикар Мусаков) [1991 г., комедия, научная фантастика, VHSRip]

Ответить на тему
 

Phaselis ®

Стаж: 4 года 6 месяцев

Сообщений: 15

Симпатии: 2

Абдулладжан, или Посвящается Стивену Спилбергу
Год выпуска: 1991
Жанр: комедия, научная фантастика
Продолжительность: 01:29:55
Режиссер: Зульфикар Мусаков
В ролях: Тути Юсупова, Раджаб Адашев, Шухрат Каюмов, Туйчи Арипов, Джавлон Хамраев, Ходжиакбар Нурматов, Джамал Хашимов, Сергей Дрейден, Галина Луковникова-Мамедова, Аброр Турсунов, Закир Муминов, Владимир Меньшов, Владимир Цветов и др.
Описание: Фантастическая комедия с неповторимым узбекским колоритом.
Фильм снят в жанре фантастической комедии с элементами пародии. Дополнительную юмористическую окраску ему придают восточная экзотика и простодушные комментарии одного из героев - сторожа колхозного магазина, посмотревшего в видеосалоне фильм Стивена Спилберга.
В Узбекистан прилетит инопланетянин. И он будет помогать сельчанам в их ежедневный жизни. В полях начнут расти арбузы с размером автобуса, куры начнут нести яйцо в минуту 24 штук , люди начнут летать с помощи кетмени. Но одному человеку не дано пользоваться его услугами. За то что он согрешил убив осу.
Качество: VHSRip
Формат: AVI
Видео кодек: DivX
Аудио кодек: MP3
Видео: 512x384, 23.976 fps, 1028 Kbps
Аудио: Stereo, 24.0 Hz, 48 Kbps

MI

General
Complete name
Format : AVI
Format/Info : Audio Video Interleave
File size : 695 MiB
Duration : 1h 29mn
Overall bit rate : 1 081 Kbps
Writing library : VirtualDub build 15654/release
Video
ID : 0
Format : MPEG-4 Visual
Format settings, BVOP : Yes
Format settings, QPel : No
Format settings, GMC : 2 warppoints
Format settings, Matrix : Default (H.263)
Codec ID : DX50
Codec ID/Hint : DivX 5
Duration : 1h 29mn
Bit rate : 1 028 Kbps
Width : 512 pixels
Height : 384 pixels
Display aspect ratio : 4:3
Frame rate : 23.976 fps
Color space : YUV
Chroma subsampling : 4:2:0
Bit depth : 8 bits
Scan type : Progressive
Compression mode : Lossy
Bits/(Pixel*Frame) : 0.218
Stream size : 661 MiB (95%)
Writing library : DivX 5.2.1 (WaffleDay) (UTC 2004-09-08)
Audio
ID : 1
Format : MPEG Audio
Format version : Version 2
Format profile : Layer 3
Mode : Joint stereo
Mode extension : Intensity Stereo + MS Stereo
Codec ID : 55
Codec ID/Hint : MP3
Duration : 1h 29mn
Bit rate mode : Constant
Bit rate : 48.0 Kbps
Channel(s) : 2 channels
Sampling rate : 24.0 KHz
Compression mode : Lossy
Stream size : 30.9 MiB (4%)
Alignment : Split accross interleaves
Interleave, duration : 8326 ms (199.63 video frames)
Interleave, preload duration : 441 ms

Скриншоты





Последний раз редактировалось: Phaselis (2013-04-25 12:33), всего редактировалось 3 раз(а)

Создавать темы 25-Апр-2013 00:30

[Профиль]  [ЛС] 

SNIL

Стаж: 5 лет 9 месяцев

Сообщений: 2624

Симпатии: 341

А лангуадж какой? раша или узб?

Создавать темы 25-Апр-2013 00:36

[Профиль]  [ЛС] 

Phaselis ®

Стаж: 4 года 6 месяцев

Сообщений: 15

Симпатии: 2

Он всегда был русско-узбекский bp te

Создавать темы 25-Апр-2013 00:47

[Профиль]  [ЛС] 

eagle_5212

Стаж: 6 лет 9 месяцев

Сообщений: 18

SNIL, 50%/50%

Создавать темы 25-Апр-2013 01:04

[Профиль]  [ЛС] 

lyuta

Стаж: 6 лет 8 месяцев

Сообщений: 193

Симпатии: 3

прикольно

Создавать темы 25-Апр-2013 01:10

[Профиль]  [ЛС] 

Bartolomeo

Стаж: 5 лет 9 месяцев

Сообщений: 26

http://www.kinoman.uz/movie/4309/ Добавь вот это !!!

Создавать темы 25-Апр-2013 08:17

[Профиль]  [ЛС] 

Bekоff

Стаж: 6 лет 8 месяцев

Сообщений: 148

Симпатии: 8

Bartolomeo, Абдулладжан, или Посвящается Стивену Спилбергу (Зульфикар Мусаков) [1991 г., Фантастика, комедия, DVB]

Создавать темы 25-Апр-2013 09:33

[Профиль]  [ЛС] 

swansea

Стаж: 5 лет

Сообщений: 18

Ну и кто на раздаче? )

Создавать темы 09-Май-2013 10:26

[Профиль]  [ЛС] 

Gen-X

Стаж: 4 года 9 месяцев

Сообщений: 125

Симпатии: 56

кому нужна версия этого фильма с узбекской и русской звуковой дорожкой, всем сюда

Создавать темы 24-Май-2015 20:50

[Профиль]  [ЛС] 
Показать сообщения:    
Ответить на тему

Текущее время: 19-Окт 05:03

Часовой пояс: UTC + 5



Вы не можете начинать темы
Вы не можете отвечать на сообщения
Вы не можете редактировать свои сообщения
Вы не можете удалять свои сообщения
Вы не можете голосовать в опросах
Вы не можете прикреплять файлы к сообщениям
Вы не можете скачивать файлы