12 способов как завязать галстук

Ответить на тему
 

jojo1 ®

Стаж: 5 лет

Сообщений: 174

Симпатии: 50

12 способов как завязать галстук Производитель: Россия
Год выпуска: 2010
Язык: русский
Описание: 12 самых распространённых способов как завязать галстук. Узлы на все случаи жизни - от официальных приёмов до брутальных.
Для мужчин и женщин любящих подчеркнуть свою индивидуальность.

12 отдельных подробных видеороликов.

♦1-Бальтус
♦2-Виндзор
♦3-Восточный
♦4-Ганновер
♦5-Двойной
♦6-Кристенсен
♦7-Нью Классик
♦8-Онассис
♦9-Полувиндзор
♦10-Пратт
♦11-Простой узел
♦12-Фристайл
Видео: XviD 528x298~528x304 25.000 fps, 876 Kbps
Аудио: MP3 44.1 KHz 2 channels, 96.0 Kbps

Медиа-инфо

D:\12 способов как завязать галстук\Восточный.avi
   General
      Complete name : D:\12 способов как завязать галстук\Восточный.avi
      Format : AVI
      Format/Info : Audio Video Interleave
      File size : 8.05 MiB
      Duration : 1mn 8s
      Overall bit rate : 986 Kbps
      Writing application : Lavf50.6.0
   Video #0
      ID : 0
      Format : xvid
      Codec ID : xvid
      Duration : 1mn 8s
      Bit rate : 876 Kbps
      Width : 528 pixels
      Height : 298 pixels
      Display aspect ratio : 16:9
      Frame rate : 25.000 fps
      Bits/(Pixel*Frame) : 0.223
      Stream size : 7.15 MiB (89%)
   Audio #1
      ID : 1
      Format : MPEG Audio
      Format version : Version 1
      Format profile : Layer 3
      Mode : Joint stereo
      Mode extension : MS Stereo
      Codec ID : 55
      Codec ID/Hint : MP3
      Duration : 1mn 8s
      Bit rate mode : Constant
      Bit rate : 96.0 Kbps
      Channel(s) : 2 channels
      Sampling rate : 44.1 KHz
      Compression mode : Lossy
      Stream size : 802 KiB (10%)
      Alignment : Aligned on interleaves
      Interleave, duration : 26 ms (0.65 video frame)
      Writing library : LAME3.98 (alpha)

Скриншоты



Последний раз редактировалось: jojo1 (2013-05-02 18:51), всего редактировалось 3 раз(а)

Создавать темы 27-Апр-2013 21:04

[Профиль]  [ЛС] 

jojo1 ®

Стаж: 5 лет

Сообщений: 174

Симпатии: 50

С первого раза я чет не замечал галстуки))) ah ag

Создавать темы 27-Апр-2013 23:07

[Профиль]  [ЛС] 

Kuro_Neko

Стаж: 4 года 8 месяцев

Сообщений: 24

Симпатии: 1

jojo1, Вахаха точняк)

Создавать темы 29-Апр-2013 11:33

[Профиль]  [ЛС] 

Nosferatu

Стаж: 4 года 7 месяцев

Сообщений: 79

Симпатии: 5

Теперь будет алгебра? bi

Создавать темы 02-Май-2013 19:40

[Профиль]  [ЛС] 

jojo1 ®

Стаж: 5 лет

Сообщений: 174

Симпатии: 50

Теперь будет алгебра? bi
Она уже есть

Создавать темы 02-Май-2013 22:00

[Профиль]  [ЛС] 

drujok

Стаж: 5 лет

Сообщений: 42

Вот отстой галстуки все одинаковые в итоге если собираетесь пялится на грудь а не учится завязывать галстуки качайте -а если вы здесь за техникой БЕСПОЛЕЗНО!

Создавать темы 24-Май-2013 01:21

[Профиль]  [ЛС] 
Показать сообщения:    
Ответить на тему

Текущее время: 20-Окт 17:44

Часовой пояс: UTC + 5



Вы не можете начинать темы
Вы не можете отвечать на сообщения
Вы не можете редактировать свои сообщения
Вы не можете удалять свои сообщения
Вы не можете голосовать в опросах
Вы не можете прикреплять файлы к сообщениям
Вы не можете скачивать файлы