Сволочи (Александр Атанесян) [2006 г., драма, DVDRip]

Страницы :  1, 2  След.

Ответить на тему
 

nasri91 ®

Стаж: 4 года 11 месяцев

Сообщений: 48

Симпатии: 1

Сволочи
Год выпуска: 2006
Жанр: драма
Продолжительность: 1:37:14
Режиссер: Александр Атанесян
В ролях: Андрей Панин, Андрей Краско, Александр Головин, Сергей Рыченков
Описание: СССР, 1943 год. Подполковника Вишневецкого, бывшего спортсмена и альпиниста, освобождают из заключения для выполнения секретного задания. Он должен подготовить диверсионную группу, состоящую из 14—15-летних подростков, приговорённых к смертной казни за совершённые ими преступления. Подготовка будет проходить на охраняемой базе в горах Казахстана, тренерами будут друзья Вишневецкого, освобождённые для этой цели из мест лишения свободы. Подготовленную диверсионную группу отправляют в Карпаты для уничтожения немецкого склада топлива.
Доп. информация: Награды
Премия MTV Россия за лучший фильм 2007 года[5]. На церемонии вручения премии Владимир Меньшов отказался вручать приз фильму. Вскрыв конверт и прочитав его содержимое, он разочарованно сказал: «Я надеялся, что пронесёт — не пронесло.Я не собираюсь вручать приз фильму, который позорит мою страну. Пускай этот приз вручает Памела Андерсон»[6][7][8]
Качество: DVDRip
Формат: AVI
Видео кодек: XviD
Аудио кодек: MP3
Видео: 656x368, 934 Кбит/с
Аудио: 2 ch, 128 Кбит/с

Mediainfo

D:\kino\1Ñóïåð ÕÈÒÛ\Ñâîëî÷è\Ñâîëî÷è.avi
General
Complete name : D:\kino\1Ñóïåð ÕÈÒÛ\Ñâîëî÷è\Ñâîëî÷è.avi
Format : AVI
Format/Info : Audio Video Interleave
File size : 746 MiB
Duration : 1h 37mn
Overall bit rate : 1 072 Kbps
Writing application : VirtualDubMod 1.5.10.2 (build 2540/release)
Writing library : VirtualDubMod build 2540/release
Video #0
ID : 0
Format : MPEG-4 Visual
Format profile : Advanced [email protected]
Format settings, BVOP : Yes
Format settings, QPel : No
Format settings, GMC : No warppoints
Format settings, Matrix : Default (H.263)
Codec ID : XVID
Codec ID/Hint : XviD
Duration : 1h 37mn
Bit rate : 934 Kbps
Width : 656 pixels
Height : 368 pixels
Display aspect ratio : 16:9
Frame rate : 25.000 fps
Resolution : 8 bits
Colorimetry : 4:2:0
Scan type : Progressive
Bits/(Pixel*Frame) : 0.155
Stream size : 650 MiB (87%)
Writing library : XviD 1.2.1 (UTC 2008-12-04)
Audio #1
ID : 1
Format : MPEG Audio
Format version : Version 1
Format profile : Layer 3
Codec ID : 55
Codec ID/Hint : MP3
Duration : 1h 37mn
Bit rate mode : Constant
Bit rate : 128 Kbps
Channel(s) : 2 channels
Sampling rate : 48.0 KHz
Stream size : 89.0 MiB (12%)
Alignment : Aligned on interleaves
Interleave, duration : 40 ms (1.00 video frame)
Interleave, preload duration : 504 ms
Writing library : LAME3.97
Encoding settings : -m s -V 4 -q 2 -lowpass 17 -b 128

Скриншоты





Последний раз редактировалось: nasri91 (2013-04-29 12:00), всего редактировалось 1 раз

Создавать темы 28-Апр-2013 18:20

[Профиль]  [ЛС] 

SpAcE

Стаж: 7 лет 4 месяца

Сообщений: 60

Слабый фильм напоминает индийский, только в СССР. Но любой фильм имеет право на жизнь и этот тоже наверное. К лучшим фильмам точно не причислю, так слабый натянутый на милодраму-боевик. За что Премия MTV Россия за лучший фильм 2007 года дали можно понять он прозаподный канал.

Создавать темы 29-Апр-2013 01:51

[Профиль]  [ЛС] 

nasri91 ®

Стаж: 4 года 11 месяцев

Сообщений: 48

Симпатии: 1

Если хотите скачать, просто дайте знать!

Создавать темы 29-Апр-2013 19:42

[Профиль]  [ЛС] 

nazar9988

Стаж: 5 лет 8 месяцев

Сообщений: 18

качаю раздайте

Создавать темы 30-Апр-2013 00:28

[Профиль]  [ЛС] 

nasri91 ®

Стаж: 4 года 11 месяцев

Сообщений: 48

Симпатии: 1

Друзья! Я прошу изв. меня за то, что не раздаю. Дома у меня техническая проблема. Как только решу вот и раздам.

Создавать темы 04-Май-2013 10:36

[Профиль]  [ЛС] 

timur2013-87

Стаж: 4 года 1 месяц

Сообщений: 2

Если хотите скачать, просто дайте знать!
хочу скачать

Создавать темы 21-Окт-2013 06:04

[Профиль]  [ЛС] 

Kondor_1995

Стаж: 5 лет 5 месяцев

Сообщений: 65

Симпатии: 4

встаньте на раздачу ребята

Создавать темы 23-Окт-2013 09:21

[Профиль]  [ЛС] 

nasri91 ®

Стаж: 4 года 11 месяцев

Сообщений: 48

Симпатии: 1

встаньте на раздачу ребята
вечером обязательно

Создавать темы 23-Окт-2013 09:41

[Профиль]  [ЛС] 

ismail6797

Стаж: 4 года 4 месяца

Сообщений: 7

встанте на раздачу ,,,

Создавать темы 04-Дек-2013 01:21

[Профиль]  [ЛС] 

PowerPVP

Стаж: 5 лет 8 месяцев

Сообщений: 6

НА РАЗДАЧУ!!!

Создавать темы 07-Дек-2013 07:42

[Профиль]  [ЛС] 

triathlet

Стаж: 5 лет 8 месяцев

Сообщений: 1

Раздавай,обязательно скачаю

Создавать темы 14-Дек-2013 19:25

[Профиль]  [ЛС] 

Nichkhun

Стаж: 5 лет 3 месяца

Сообщений: 99

Симпатии: 2

Буду качать, можете раздавать да?)

Создавать темы 16-Дек-2013 15:37

[Профиль]  [ЛС] 

farikinchik

Стаж: 5 лет 2 месяца

Сообщений: 38

Симпатии: 6

Dayte skorost!!!!!!!!!

Создавать темы 14-Фев-2014 20:46

[Профиль]  [ЛС] 

ibrohimov_

Стаж: 5 лет 3 месяца

Сообщений: 54

Симпатии: 2

Качаю раздайте !

Создавать темы 27-Май-2014 00:45

[Профиль]  [ЛС] 

Champion

Стаж: 5 лет 10 месяцев

Сообщений: 5

хочу скачать, начни раздачу плз.

Создавать темы 02-Сен-2014 19:32

[Профиль]  [ЛС] 
Показать сообщения:    
Ответить на тему

Текущее время: 16-Дек 14:14

Часовой пояс: UTC + 5



Вы не можете начинать темы
Вы не можете отвечать на сообщения
Вы не можете редактировать свои сообщения
Вы не можете удалять свои сообщения
Вы не можете голосовать в опросах
Вы не можете прикреплять файлы к сообщениям
Вы не можете скачивать файлы