Переполох на районе / Les Kaira (Франк Гастамбиде / Franck Gastambide) [2012, Франция, комедия, HDRip][Лицензия]

Ответить на тему
 

Suxrob89 ®

Стаж: 7 лет 3 месяца

Сообщений: 933

Симпатии: 564

Переполох на районе-Les Kaira- Страна: Франция
Жанр: комедия
Год выпуска: 2012
Продолжительность: 01:37:39-Перевод: Профессиональный (полное дублирование) [Лицензия]
Субтитры: нет
Режиссер: Франк Гастамбиде / Franck Gastambide
В ролях: Меди Садун, Франк Гастамбиде, Джиб, Алис Белаиди, Пом Клементьефф, Рамзи Бедиа, Хаким Сид, Исмаэль Си Саване, Аннабель Лангронн, Сисси Дюпарк, Ануар Тубали, Жером Пакватт-Описание: Трое непутевых жителей одного из бедных кварталов Парижа попадают в историю и оказываются в должниках у местного авторитете Ворнера. Срочно нужны бабосы и друзья решают сняться в порнофильме. Лучше бы они этого не делали! Умопомрачительная комедия!- -Сценарий: Франк Гастамбиде / Franck Gastambide
Продюсер: Эрик Альтмайер / Eric Altmeyer, Николас Альтмайер / Nicolas Altmeyer, Жан-Шарль Фелли / Jean-Charles Felli, Кристоф Тома / Christophe Tomas
Оператор: Антуан Марто / Antoine Marteau
Композитор: Эрик Невё / Éric Neveux
Сборы в России: $103 504
Мировая премьера: 10 июля 2012
Релиз на DVD: 30 апреля 2013, «Флагман-Трейд»-Качество: HDRip (Исходник BDRip 720p)
Контейнер: AVI
Видео: XviD, 720x304 (2.35:1), 1677 kbps, 24 fps, 0,319 bpp
Аудио: AC3 / 5.1 / 48 kHz / 448 kbps / 16 bit-

Media Info

General
Complete name : G:\Perepoloh.na.rajone.2012.D.HDRip.IRONCLUB.avi
Format : AVI
Format/Info : Audio Video Interleave
File size : 1.46 GiB
Duration : 1h 37mn
Overall bit rate : 2 135 Kbps
Movie name : Perepoloh.na.rajone.2012.D.HDRip.IRONCLUB.HDRip
Genre : Comedy
Writing application : VirtualDubMod 1.5.10.2 (build 2540/release)
Original source form/Name : Movie
Video
ID : 0
Format : MPEG-4 Visual
Format profile : Advanced [email protected]
Format settings, BVOP : 1
Format settings, QPel : No
Format settings, GMC : No warppoints
Format settings, Matrix : Custom
Codec ID : XVID
Codec ID/Hint : XviD
Duration : 1h 37mn
Bit rate : 1 678 Kbps
Width : 720 pixels
Height : 304 pixels
Display aspect ratio : 2.35:1
Frame rate : 24.000 fps
Color space : YUV
Chroma subsampling : 4:2:0
Bit depth : 8 bits
Scan type : Progressive
Compression mode : Lossy
Bits/(Pixel*Frame) : 0.319
Stream size : 1.14 GiB (79%)
Writing library : XviD 1.2.1 (UTC 2008-12-04)
Audio
ID : 1
Format : AC-3
Format/Info : Audio Coding 3
Mode extension : CM (complete main)
Codec ID : 2000
Duration : 1h 37mn
Bit rate mode : Constant
Bit rate : 448 Kbps
Channel(s) : 6 channels
Channel positions : Front: L C R, Side: L R, LFE
Sampling rate : 48.0 KHz
Bit depth : 16 bits
Compression mode : Lossy
Stream size : 313 MiB (21%)
Alignment : Split accross interleaves
Interleave, duration : 42 ms (1.00 video frame)
Interleave, preload duration : 500 ms

Скриншот с названием фильма

Скриншоты

Создавать темы 29-Апр-2013 06:38

[Профиль]  [ЛС] 

Laki

Стаж: 5 лет 7 месяцев

Сообщений: 49

Симпатии: 4

Сухроб когда раздача?

Создавать темы 29-Апр-2013 06:42

[Профиль]  [ЛС] 

Kensei

Стаж: 4 года 6 месяцев

Сообщений: 37

Симпатии: 2

Присоединяюсь к раздаче)

Создавать темы 29-Апр-2013 13:55

[Профиль]  [ЛС] 

super_azamat

Стаж: 4 года

Сообщений: 5

люди помогите с раздачей...

Создавать темы 18-Янв-2014 18:45

[Профиль]  [ЛС] 
Показать сообщения:    
Ответить на тему

Текущее время: 18-Ноя 17:22

Часовой пояс: UTC + 5



Вы не можете начинать темы
Вы не можете отвечать на сообщения
Вы не можете редактировать свои сообщения
Вы не можете удалять свои сообщения
Вы не можете голосовать в опросах
Вы не можете прикреплять файлы к сообщениям
Вы не можете скачивать файлы