Возвращаться / Vuelve (Иван Ноэль) [2013 г., триллер, DVDRip]

Ответить на тему
 

RRRRD96 ®

Стаж: 4 года 11 месяцев

Сообщений: 56

Возвращаться / Vuelve
«You are good, Gabriel»
- Год выпуска: 2013
Страна: Аргентина
Жанр: триллер
Продолжительность: 95 мин. / 01:35:17
Перевод: Любительский (одноголосый)-Режиссер: Иван Ноэль-В ролях: Juan Carrasco, Romina Pinto, Renzo Sabelli-Описание: Габриэль — впечатлительный и находящийся под сильным влиянием матери мальчик. В свою очередь, его мать София — неуравновешенная и явно нездоровая психически особа. Они живут в бывшем монастыре, который Грегорио, отец мальчика, прибрал к рукам в результате не совсем законных махинаций. Но Грегорио практически нет дела до семьи — он занят обустройством монастыря и решением проблем с собственностью на него. Неожиданно София погибает, сорвавшись с балкона в звоннице монастыря. Эта смерть, больше смахивающая на самоубийство, сильно влияет на Габриэля. Ему кажется, что мать приходит к нему, разговаривает с ним. В один из таких приходов София сообщает ему, что Бог даст ей новую жизнь, если Габриэль будет «хорошо вести себя и делать добрые дела». Но воспаленный ум подростка толкает его на неожиданные и непредсказуемые поступки..-Доп. информация: сценарий: Иван Ноэль
продюсер: Иван Ноэль, Peter Scholz, Paul Sestina
оператор: Иван Ноэль
композитор: Иван Ноэль
монтаж: Иван Ноэль
бюджет: $50 000
премьера (мир): 1 марта 2013- -Качество: DVDRip
Формат: AVI
Видео кодек: XviD
Аудио кодек: MP3
Видео: 1024x576(16:9), 25.000 fps, XviD ~1560 kbps avg, 576 pixels, 8 bits
Аудио: MPEG Audio, MP3, 128 Kbps, 2 channels, 44.1 KHz

Скриншоты

MI

Video
ID : 0
Format : MPEG-4 Visual
Format profile : Advanced [email protected]
Format settings, BVOP : 2
Format settings, QPel : No
Format settings, GMC : No warppoints
Format settings, Matrix : Default (H.263)
Codec ID : XVID
Codec ID/Hint : XviD
Duration : 1h 27mn
Bit rate : 1 560 Kbps
Width : 1 024 pixels
Height : 576 pixels
Display aspect ratio : 16:9
Frame rate : 25.000 fps
Color space : YUV
Chroma subsampling : 4:2:0
Bit depth : 8 bits
Scan type : Progressive
Compression mode : Lossy
Bits/(Pixel*Frame) : 0.106
Stream size : 976 MiB (92%)
Writing library : XviD 1.2.1 (UTC 2008-12-04)
Audio
ID : 1
Format : MPEG Audio
Format version : Version 1
Format profile : Layer 3
Mode : Joint stereo
Codec ID : 55
Codec ID/Hint : MP3
Duration : 1h 27mn
Bit rate mode : Constant
Bit rate : 128 Kbps
Channel(s) : 2 channels
Sampling rate : 44.1 KHz
Compression mode : Lossy
Delay relative to video : 40ms
Stream size : 80.1 MiB (8%)
Alignment : Aligned on interleaves
Interleave, duration : 26 ms (0.65 video frame)
Interleave, preload duration : 522 ms
Writing library : LAME3.98.4

Создавать темы 29-Апр-2013 08:04

[Профиль]  [ЛС] 

RRRRD96 ®

Стаж: 4 года 11 месяцев

Сообщений: 56

Раздача с 7:00 по 22:00

Создавать темы 29-Апр-2013 22:03

[Профиль]  [ЛС] 
Показать сообщения:    
Ответить на тему

Текущее время: 23-Авг 05:47

Часовой пояс: UTC + 5



Вы не можете начинать темы
Вы не можете отвечать на сообщения
Вы не можете редактировать свои сообщения
Вы не можете удалять свои сообщения
Вы не можете голосовать в опросах
Вы не можете прикреплять файлы к сообщениям
Вы не можете скачивать файлы