Фортуна Вегаса / Lay the Favorite (Стивен Фрирз / Stephen Frears) [2012 г., комедия, BDRip-AVC]

Ответить на тему
 

atgerkin ®

Стаж: 6 лет 9 месяцев

Сообщений: 247

Симпатии: 78

-- Год выпуска: 2012
Страна: США, Великобритания
Жанр: комедия
Продолжительность: 01:33:32
Перевод: Профессиональный (полное дублирование) [Лицензия]-Режиссер: Стивен Фрирз / Stephen Frears
-В ролях: Ребекка Холл (Beth), Брюс Уиллис (Dink Heimowitz), Кэтрин Зета-Джонс (Tulip), Джошуа Джексон (Jeremy), Фрэнк Грилло (Frankie), Винс Вон (Rosie), Джон Кэрролл Линч (Dave Greenberg), Лаура Препон (Holly), Уэйн Пер (Scott), Джоэль Мюррей (Darren), Хьюго Армстронг (Customer), Корбин Бернсен (Jerry)-Описание: Девушка в 24 года переехала в Лас-Вегас, где нашла работу у добродушного толстяка Динка Хаймовица, содержащего нелегальную букмекерскую контору. Миляга Динк получил хорошее образование, но отличился в родном Нью-Йорке махинациями на ставках, из-за чего и сбежал в игорную столицу США. Игорным бизнесом Хаймовиц продолжал заниматься при помощи своего напарника букмекера Бернарда Роуза, который живет на Лонг-Айленде. Будучи математическими гениями, эти двое сколотили себе состояние на ставках и наивных клиентах, тогда как сама Бет научилась от них многим трюкам.- -Качество: BDRip-AVC
Формат: MKV
Видео кодек: AVC
Аудио кодек: AC3
Видео: AVC, 1024x552 (1.862), 2200 kbps, 24 fps, 0,162 bpp
Аудио: AC3 / 5.1 / 48 kHz / 448 kbps / 16 bit

Mediainfo

Общее
Уникальный идентификатор : 221726939661336447761612547830288508561 (0xA6CF0E25547C7D4F84F2FC1901EC6691)
Полное имя : Фортуна Вегаса (2012) BDRip - AVC.mkv
Формат : Matroska
Версия формата : Version 2
Размер файла : 1,73 Гбайт
Продолжительность : 1 ч. 33 м.
Общий поток : 2647 Кбит/сек
Дата кодирования : UTC 2013-04-23 10:10:17
Программа кодирования : mkvmerge v5.7.0 ('The Whirlwind') built on Jul 8 2012 20:08:51
Библиотека кодирования : libebml v1.2.3 + libmatroska v1.3.0
Видео
Идентификатор : 1
Формат : AVC
Формат/Информация : Advanced Video Codec
Профиль формата : [email protected]
Параметр CABAC формата : Да
Параметр ReFrames формата : 5 кадров
Идентификатор кодека : V_MPEG4/ISO/AVC
Продолжительность : 1 ч. 33 м.
Битрейт : 2200 Кбит/сек
Ширина : 1024 пикселя
Высота : 552 пикселя
Соотношение сторон : 1,85:1
Режим частоты кадров : Постоянный
Частота кадров : 24,000 кадра/сек
Цветовое пространство : YUV
Субдискретизация насыщенности : 4:2:0
Битовая глубина : 8 бит
Тип развёртки : Прогрессивная
Бит/(Пиксели*Кадры) : 0.162
Размер потока : 1,40 Гбайт (81%)
Библиотека кодирования : x264 core 124 r2197M 69a0443
Настройки программы : cabac=1 / ref=6 / deblock=1:0:0 / analyse=0x3:0x133 / me=umh / subme=9 / psy=1 / psy_rd=1.00:0.20 / mixed_ref=1 / me_range=16 / chroma_me=1 / trellis=0 / 8x8dct=1 / cqm=0 / deadzone=21,11 / fast_pskip=1 / chroma_qp_offset=-2 / threads=2 / sliced_threads=0 / nr=0 / decimate=1 / interlaced=0 / bluray_compat=0 / constrained_intra=0 / bframes=6 / b_pyramid=1 / b_adapt=0 / b_bias=0 / direct=3 / weightb=1 / open_gop=0 / weightp=0 / keyint=240 / keyint_min=24 / scenecut=40 / intra_refresh=0 / rc_lookahead=40 / rc=2pass / mbtree=1 / bitrate=2200 / ratetol=1.0 / qcomp=0.60 / qpmin=10 / qpmax=51 / qpstep=6 / cplxblur=20.0 / qblur=0.5 / ip_ratio=1.40 / aq=1:1.00
Язык : English
Default : Да
Forced : Нет
Аудио
Идентификатор : 2
Формат : AC-3
Формат/Информация : Audio Coding 3
Расширение режима : CM (complete main)
Параметр Endianness формата : Big
Идентификатор кодека : A_AC3
Продолжительность : 1 ч. 33 м.
Вид битрейта : Постоянный
Битрейт : 448 Кбит/сек
Каналы : 6 каналов
Расположение каналов : Front: L C R, Side: L R, LFE
Частота : 48,0 КГц
Битовая глубина : 16 бит
Метод сжатия : С потерями
Размер потока : 300 Мбайт (17%)
Язык : Russian
Default : Да
Forced : Нет

Скриншоты




Создавать темы 29-Апр-2013 15:11

[Профиль]  [ЛС] 
Показать сообщения:    
Ответить на тему

Текущее время: 25-Сен 02:21

Часовой пояс: UTC + 5



Вы не можете начинать темы
Вы не можете отвечать на сообщения
Вы не можете редактировать свои сообщения
Вы не можете удалять свои сообщения
Вы не можете голосовать в опросах
Вы не можете прикреплять файлы к сообщениям
Вы не можете скачивать файлы