Командный дух / Teen Spirit (Джил Джангер) [2011 г., Драма, Комедия, Фэнтези, TVRip]

Ответить на тему
 

Nosferatu ®

Стаж: 4 года 8 месяцев

Сообщений: 79

Симпатии: 5

Командный дух
Teen Spirit
- -Год выпуска: 2011
Страна: США
Жанр: Драма, Комедия, Фэнтези
Продолжительность: 01:21:41
Перевод: Любительский (одноголосый)
Режиссер: Джил Джангер
В ролях:
Крис Зилка, Кэсси Сербо, Линдси Шоу, Тим Ганн, Карисса Капобьянко, Габриела Лопес, Катрина Тэнди, Кэти Сариф, Трэвис Квентин Янг, Парас Патель-Описание:
Сюжет вращается вокруг Амбер, стервозной популярной девушки, которая умирает от удара током. Ее не пустят на небеса, если она не поможет самой непопулярной в школе девушке — Лизе — стать королевой выпускного бала в течение недели, но… все пошло не так, как планировалось.
Доп. информация:
Рейтинг КиноПоиск.Ru: 6.13 (582)
Рейтинг IMDb: 5.4 (1734)
Качество: TVRip
Формат: AVI
Видео кодек: XviD
Аудио кодек: MP3
Видео: Video: Xvid 720x400 23.976fps [Stream 00]
Аудио: Audio: MPEG Audio Layer 3 48000Hz stereo 128kbps [Stream 01]

Media Info

Format : AVI
Format/Info : Audio Video Interleave
File size : 1.28 GiB
Duration : 1h 21mn
Overall bit rate : 2 236 Kbps
Writing application : VirtualDubMod 1.5.10.2 (build 2540/release)
Writing library : VirtualDubMod build 2540/release
Video
ID : 0
Format : MPEG-4 Visual
Format profile : Advanced [email protected]
Format settings, BVOP : 2
Format settings, QPel : No
Format settings, GMC : No warppoints
Format settings, Matrix : Custom
Codec ID : XVID
Codec ID/Hint : XviD
Duration : 1h 21mn
Bit rate : 2 099 Kbps
Width : 720 pixels
Height : 400 pixels
Display aspect ratio : 16:9
Frame rate : 23.976 fps
Color space : YUV
Chroma subsampling : 4:2:0
Bit depth : 8 bits
Scan type : Progressive
Compression mode : Lossy
Bits/(Pixel*Frame) : 0.304
Stream size : 1.20 GiB (94%)
Writing library : XviD 65
Audio
ID : 1
Format : MPEG Audio
Format version : Version 1
Format profile : Layer 3
Mode : Joint stereo
Codec ID : 55
Codec ID/Hint : MP3
Duration : 1h 21mn
Bit rate mode : Constant
Bit rate : 128 Kbps
Channel(s) : 2 channels
Sampling rate : 48.0 KHz
Compression mode : Lossy
Stream size : 74.8 MiB (6%)
Alignment : Split accross interleaves
Interleave, duration : 42 ms (1.00 video frame)
Interleave, preload duration : 500 ms
Writing library : LAME3.98.2

Скриншоты




Приятного просмотра! az

Создавать темы 29-Апр-2013 18:29

[Профиль]  [ЛС] 
Показать сообщения:    
Ответить на тему

Текущее время: 23-Ноя 19:31

Часовой пояс: UTC + 5



Вы не можете начинать темы
Вы не можете отвечать на сообщения
Вы не можете редактировать свои сообщения
Вы не можете удалять свои сообщения
Вы не можете голосовать в опросах
Вы не можете прикреплять файлы к сообщениям
Вы не можете скачивать файлы