Спасатель / The Guardian (Эндрю Дэвис) [2006 г., Боевик, Драма, Приключения, BDRip]

Ответить на тему
 

Nosferatu ®

Стаж: 4 года 9 месяцев

Сообщений: 79

Симпатии: 5

Спасатель / The Guardian- -Год выпуска: 2006
Страна: США
Жанр: Боевик, Драма, Приключения
Продолжительность: 02:19:05
Перевод: Профессиональный (полное дублирование)
Режиссер: Эндрю Дэвис
В ролях:
Брайан Джерати, Кевин Костнер, Клэнси Браун, Нил МакДонаф, Омари Хардвик, Села Уорд, Эштон Кутчер, Мелисса Сейджмиллер, Майкл Рэди, Алекс Дэниелс
Описание:
Бен Рэнделл, легендарный пловец-спасатель когда-то в ужасной катастрофе потерял всю свою команду. Чтобы найти свое место в жизни, и забыть о том страшном событии, он решает пойти в Береговую охрану, где в его обязанности входит тренировка молодых спасателей. Здесь, он сталкивается с молодым и талантливым пловцом «с характером» Джейком Фишером. В процессе обучения Бен помогает Джейку скомбинировать его характер с его способностями. В конце обучения они вдвоем отправляются к Аляске, в Берингово море, где Джейку придется пройти самое важное испытание…
Доп. информация:
Рейтинг КиноПоиск.Ru: 8.07 (20452)
Рейтинг IMDb: 6.7 (51520)
Качество: BDRip
Формат: MKV
Видео кодек: x264
Аудио кодек: AC3
Видео: Video: MPEG4 Video (H264) 6 105 Kbps 1280x692 23.976fps [Video]-Аудио #1: AC-3, 384 Kbps, 6 channels, 48.0 KHz, rus, Dublyaj(DVD R5).AC3_5.1_384kbit/s
Аудио #2: AC-3, 192 Kbps, 2 channels, 48.0 KHz, ukr, Dublyaj(DVD R5).AC3_2.0_192kbit/s
Аудио #3: DTS, 754 Kbps, 6 channels, 48.0 KHz, rus, Dvuhgolosyi(Glanz i Koroleva).DTS_5.1_768kbit/s
Аудио #4: DTS, 754 Kbps, 6 channels, 48.0 KHz, rus, Odnogolosyi(Nemahov).DTS_5.1_768kbit/s
Аудио #5: AC-3, 640 Kbps, 6 channels, 48.0 KHz, eng, Original.AC3_5.1_640kbit/s
Аудио #6: AC-3, 96.0 Kbps, 1 channels, 48.0 KHz, eng, Kommentarii rejissera Endryu Devisa i scenarista Rona L. Brinkerhoffa.AC3_1.0_96kbit/s-Субтитры: rus (Forced), rus (Full), ukr (Forced), ukr (Full), eng

Media Info

Format : Matroska
Format version : Version 2
File size : 8.67 GiB
Duration : 2h 19mn
Overall bit rate : 8 929 Kbps
Movie name : The.Guardian.2006.720p.BDrip_DON
Encoded date : UTC 2011-06-10 13:22:45
Writing application : mkvmerge v4.8.0 ('I Got The...') built on Jun 3 2011 22:50:32
Writing library : libebml v1.2.0 + libmatroska v1.1.0
Video
ID : 1
Format : AVC
Format/Info : Advanced Video Codec
Format profile : [email protected]
Format settings, CABAC : Yes
Format settings, ReFrames : 9 frames
Codec ID : V_MPEG4/ISO/AVC
Duration : 2h 19mn
Bit rate : 6 105 Kbps
Width : 1 280 pixels
Height : 692 pixels
Display aspect ratio : 1.85:1
Frame rate mode : Constant
Frame rate : 23.976 fps
Color space : YUV
Chroma subsampling : 4:2:0
Bit depth : 8 bits
Scan type : Progressive
Bits/(Pixel*Frame) : 0.287
Stream size : 5.76 GiB (66%)
Title : 1280x692 - 6105kbit/s - x264
Writing library : x264 core 110 r1820 fdcf2ae
Encoding settings : cabac=1 / ref=9 / deblock=1:-3:-3 / analyse=0x3:0x133 / me=umh / subme=9 / psy=1 / psy_rd=1.20:0.25 / mixed_ref=1 / me_range=32 / chroma_me=1 / trellis=2 / 8x8dct=1 / cqm=0 / deadzone=21,11 / fast_pskip=0 / chroma_qp_offset=-4 / threads=6 / sliced_threads=0 / nr=0 / decimate=0 / interlaced=0 / constrained_intra=0 / bframes=6 / b_pyramid=2 / b_adapt=2 / b_bias=0 / direct=3 / weightb=1 / open_gop=0 / weightp=2 / keyint=250 / keyint_min=23 / scenecut=40 / intra_refresh=0 / rc_lookahead=60 / rc=2pass / mbtree=1 / bitrate=6105 / ratetol=1.0 / qcomp=0.75 / qpmin=0 / qpmax=51 / qpstep=4 / cplxblur=20.0 / qblur=0.5 / vbv_maxrate=50000 / vbv_bufsize=62500 / ip_ratio=1.40 / aq=1:0.80 / nal_hrd=none
Language : English
Default : Yes
Forced : No
Audio #1
ID : 2
Format : AC-3
Format/Info : Audio Coding 3
Mode extension : CM (complete main)
Format settings, Endianness : Big
Codec ID : A_AC3
Duration : 2h 19mn
Bit rate mode : Constant
Bit rate : 384 Kbps
Channel(s) : 6 channels
Channel positions : Front: L C R, Side: L R, LFE
Sampling rate : 48.0 KHz
Bit depth : 16 bits
Compression mode : Lossy
Stream size : 382 MiB (4%)
Title : Dublyaj(DVD R5).AC3_5.1_384kbit/s
Language : Russian
Default : Yes
Forced : No
Audio #2
ID : 3
Format : AC-3
Format/Info : Audio Coding 3
Mode extension : CM (complete main)
Format settings, Endianness : Big
Codec ID : A_AC3
Duration : 2h 19mn
Bit rate mode : Constant
Bit rate : 192 Kbps
Channel(s) : 2 channels
Channel positions : Front: L R
Sampling rate : 48.0 KHz
Bit depth : 16 bits
Compression mode : Lossy
Stream size : 191 MiB (2%)
Title : Dublyaj(DVD R5).AC3_2.0_192kbit/s
Language : Ukrainian
Default : No
Forced : No
Audio #3
ID : 4
Format : DTS
Format/Info : Digital Theater Systems
Mode : 16
Format settings, Endianness : Big
Codec ID : A_DTS
Duration : 2h 19mn
Bit rate mode : Constant
Bit rate : 755 Kbps
Channel(s) : 6 channels
Channel positions : Front: L C R, Side: L R, LFE
Sampling rate : 48.0 KHz
Bit depth : 16 bits
Compression mode : Lossy
Stream size : 751 MiB (8%)
Title : Dvuhgolosyi(Glanz i Koroleva).DTS_5.1_768kbit/s
Language : Russian
Default : No
Forced : No
Audio #4
ID : 5
Format : DTS
Format/Info : Digital Theater Systems
Mode : 16
Format settings, Endianness : Big
Codec ID : A_DTS
Duration : 2h 19mn
Bit rate mode : Constant
Bit rate : 755 Kbps
Channel(s) : 6 channels
Channel positions : Front: L C R, Side: L R, LFE
Sampling rate : 48.0 KHz
Bit depth : 24 bits
Compression mode : Lossy
Stream size : 751 MiB (8%)
Title : Odnogolosyi(Nemahov).DTS_5.1_768kbit/s
Language : Russian
Default : No
Forced : No
Audio #5
ID : 6
Format : AC-3
Format/Info : Audio Coding 3
Mode extension : CM (complete main)
Format settings, Endianness : Big
Codec ID : A_AC3
Duration : 2h 19mn
Bit rate mode : Constant
Bit rate : 640 Kbps
Channel(s) : 6 channels
Channel positions : Front: L C R, Side: L R, LFE
Sampling rate : 48.0 KHz
Bit depth : 16 bits
Compression mode : Lossy
Stream size : 637 MiB (7%)
Title : Original.AC3_5.1_640kbit/s
Language : English
Default : No
Forced : No
Audio #6
ID : 7
Format : AC-3
Format/Info : Audio Coding 3
Mode extension : CM (complete main)
Format settings, Endianness : Big
Codec ID : A_AC3
Duration : 2h 19mn
Bit rate mode : Constant
Bit rate : 96.0 Kbps
Channel(s) : 1 channel
Channel positions : Front: C
Sampling rate : 48.0 KHz
Bit depth : 16 bits
Compression mode : Lossy
Stream size : 95.5 MiB (1%)
Title : Kommentarii rejissera Endryu Devisa i scenarista Rona L. Brinkerhoffa.AC3_1.0_96kbit/s
Language : English
Default : No
Forced : No
Text #1
ID : 8
Format : UTF-8
Codec ID : S_TEXT/UTF8
Codec ID/Info : UTF-8 Plain Text
Title : Forced
Language : Russian
Default : Yes
Forced : No
Text #2
ID : 9
Format : UTF-8
Codec ID : S_TEXT/UTF8
Codec ID/Info : UTF-8 Plain Text
Title : Full
Language : Russian
Default : No
Forced : No
Text #3
ID : 10
Format : UTF-8
Codec ID : S_TEXT/UTF8
Codec ID/Info : UTF-8 Plain Text
Title : Forced
Language : Ukrainian
Default : No
Forced : No
Text #4
ID : 11
Format : UTF-8
Codec ID : S_TEXT/UTF8
Codec ID/Info : UTF-8 Plain Text
Title : Full
Language : Ukrainian
Default : No
Forced : No
Text #5
ID : 12
Format : UTF-8
Codec ID : S_TEXT/UTF8
Codec ID/Info : UTF-8 Plain Text
Language : English
Default : No
Forced : No
Menu
00:00:00.000 : en:To the Rescue
00:09:07.464 : en:Welcome to "A" School
00:22:17.211 : en:Exceeding Expectations
00:32:51.845 : en:The Bet
00:43:41.744 : en:Waiting to Surface
00:55:08.722 : en:Broken Records
01:06:17.473 : en:Barroom Brawl
01:23:00.350 : en:Open Water
01:32:10.984 : en:The First Rescue
01:45:20.689 : en:Saying Goodbye
01:51:57.294 : en:Never Let Go
02:11:59.328 : en:End Credits

Скриншоты





Приятного просмотра! az


Последний раз редактировалось: Nosferatu (2013-04-29 23:32), всего редактировалось 1 раз

Создавать темы 29-Апр-2013 20:16

[Профиль]  [ЛС] 

Robot-IX

Стаж: 5 лет 8 месяцев

Сообщений: 223

Симпатии: 9

Рекомендую! фильм не столько про профессиональную "деятельность"
сколько про простую жизнь и натуру человека... Кевин Костнер на высоте!
кино "забирает" при первом просмотре в течении 10-15 мин...!

Создавать темы 03-Май-2013 17:00

[Профиль]  [ЛС] 

ST1337

Стаж: 4 года 7 месяцев

Сообщений: 20

ни у кого нет этого фильма?

Создавать темы 02-Июл-2014 15:36

[Профиль]  [ЛС] 
Показать сообщения:    
Ответить на тему

Текущее время: 16-Дек 00:55

Часовой пояс: UTC + 5



Вы не можете начинать темы
Вы не можете отвечать на сообщения
Вы не можете редактировать свои сообщения
Вы не можете удалять свои сообщения
Вы не можете голосовать в опросах
Вы не можете прикреплять файлы к сообщениям
Вы не можете скачивать файлы