Джанго освобожденный / Django Unchained (Квентин Тарантино) [2012 г., драма, вестерн, комедия...,BDRip 720p[Лицензия]

Ответить на тему
 

Kensei ®

Стаж: 4 года 5 месяцев

Сообщений: 37

Симпатии: 2

Джанго освобожденный-Django Unchained-«Они забрали его свободу. Он заберёт у них всё.»- Год Выпуска:2012
Страна:США
Жанр:драма, вестерн, комедия, приключения, ...
Продолжительность: 02:45:23
Перевод: Дублированный[Лицензия BD CEE] + Оригинал (Английский)-Режиссер:Квентин Тарантино
Cценарий:Квентин Тарантино
Продюсер:Реджинальд Хадлин, Пилар Савон, Стейси Шер, ...
Оператор:Роберт Ричардсон
Художник:Дж. Майкл Рива, Пейдж Бакнер, Дэвид Ф. Классен, ...
Монтаж:Фред Раскин-В ролях:Джейми Фокс, Кристоф Вальц, Леонардо ДиКаприо, Керри Вашингтон, Сэмюэл Л. Джексон, Уолтон Гоггинс, Деннис Кристофер, Джеймс Римар, Майкл Паркс, Дон Джонсон-Описание: Эксцентричный охотник за головами, также известный как «Дантист», промышляет отстрелом самых опасных преступников на Диком Западе. Работенка пыльная, и без надежного помощника ему не обойтись. Но как найти такого и желательно не очень дорогого? Беглый раб по имени Джанго — прекрасная кандидатура. Правда, у нового помощника свои мотивы — кое с чем надо разобраться… - -Бюджет: $100 000 000
Сборы в США:$162 001 000
Сборы в мире: + $251 000 000 = $413 001 000
Сборы в России:$15 859 555
Зрители: 4.16 млн, 4.13 млн, 1.98 млн, ...
Премьера (мир):25 декабря 2012, ...
Премьера (РФ):17 января 2013, «WDSSPR»
Релиз на DVD: 2 мая 2013, «Columbia/Sony», ...
Релиз на Blu-Ray: 2 мая 2013, «Columbia/Sony», ...-Качество: BDRip
Формат: MKV
Видео: x264 1280x534 (2.37:1), 23.976 fps, XviD build 50 ~5500 kbps avg, 0.25 bit/pixel
Аудио 1: Russian: AC3, 640 kb/s 6 channels / 48.0 KHz
Аудио 2: English: DTS, 1510 Kb/s 6 channels / 48.0 KHz-

Скриншоты



Медиаинфо

Общее
Уникальный идентификатор : 205334648355987921708252798541796880024 (0x9A7A03C9349AA047B3CCE11784BA2E98)
Полное имя : D:\Dzhango.osvobozhdennyiy.2012.D.BDRip.720p.Pluto.[dchub.ws].mkv
Формат : Matroska
Версия формата : Version 2
Размер файла : 8,84 Гбайт
Продолжительность : 2 ч. 45 м.
Общий поток : 7649 Кбит/сек
Дата кодирования : UTC 2013-04-27 07:55:27
Программа кодирования : mkvmerge v4.9.1 ('Ich will') built on Jul 11 2011 23:53:15
Библиотека кодирования : libebml v1.2.1 + libmatroska v1.1.1
Видео
Идентификатор : 1
Формат : AVC
Формат/Информация : Advanced Video Codec
Профиль формата : [email protected]
Параметр CABAC формата : Да
Параметр ReFrames формата : 12 кадров
Режим смешивания : Header stripping
Идентификатор кодека : V_MPEG4/ISO/AVC
Продолжительность : 2 ч. 45 м.
Битрейт : 5500 Кбит/сек
Ширина : 1280 пикселей
Высота : 534 пикселя
Соотношение сторон : 2,40:1
Частота кадров : 23,976 кадра/сек
Цветовое пространство : YUV
Субдискретизация насыщенности : 4:2:0
Битовая глубина : 8 бит
Тип развёртки : Прогрессивная
Бит/(Пиксели*Кадры) : 0.336
Размер потока : 6,18 Гбайт (70%)
Библиотека кодирования : x264 core 130 r2273 b3065e6
Настройки программы : cabac=1 / ref=12 / deblock=1:-3:-3 / analyse=0x3:0x113 / me=umh / subme=10 / psy=1 / psy_rd=1.10:0.00 / mixed_ref=1 / me_range=32 / chroma_me=1 / trellis=2 / 8x8dct=1 / cqm=0 / deadzone=21,11 / fast_pskip=0 / chroma_qp_offset=-2 / threads=18 / lookahead_threads=3 / sliced_threads=0 / nr=0 / decimate=0 / interlaced=0 / bluray_compat=0 / constrained_intra=0 / bframes=8 / b_pyramid=2 / b_adapt=2 / b_bias=0 / direct=3 / weightb=1 / open_gop=0 / weightp=2 / keyint=240 / keyint_min=24 / scenecut=40 / intra_refresh=0 / rc=2pass / mbtree=0 / bitrate=5500 / ratetol=1.0 / qcomp=0.75 / qpmin=0 / qpmax=69 / qpstep=4 / cplxblur=20.0 / qblur=0.5 / ip_ratio=1.20 / pb_ratio=1.15 / aq=1:0.80
Язык : English
Default : Да
Forced : Нет
Аудио #1
Идентификатор : 2
Формат : AC-3
Формат/Информация : Audio Coding 3
Расширение режима : CM (complete main)
Параметр Endianness формата : Big
Идентификатор кодека : A_AC3
Продолжительность : 2 ч. 45 м.
Вид битрейта : Постоянный
Битрейт : 640 Кбит/сек
Каналы : 6 каналов
Расположение каналов : Front: L C R, Side: L R, LFE
Частота : 48,0 КГц
Битовая глубина : 16 бит
Метод сжатия : С потерями
Размер потока : 757 Мбайт (8%)
Язык : Russian
Default : Да
Forced : Нет
Аудио #2
Идентификатор : 3
Формат : DTS
Формат/Информация : Digital Theater Systems
Режим смешивания : Header stripping
Идентификатор кодека : A_DTS
Продолжительность : 2 ч. 45 м.
Вид битрейта : Постоянный
Битрейт : 1510 Кбит/сек
Каналы : 6 каналов
Расположение каналов : Front: L C R, Side: L R, LFE
Частота : 48,0 КГц
Битовая глубина : 24 бит
Метод сжатия : С потерями
Размер потока : 1,74 Гбайт (20%)
Язык : English
Default : Нет
Forced : Нет
Текст #1
Идентификатор : 4
Формат : UTF-8
Идентификатор кодека : S_TEXT/UTF8
Идентификатор кодека/Информация : UTF-8 Plain Text
Язык : Russian
Default : Нет
Forced : Нет
Текст #2
Идентификатор : 5
Формат : UTF-8
Идентификатор кодека : S_TEXT/UTF8
Идентификатор кодека/Информация : UTF-8 Plain Text
Язык : English
Default : Нет
Forced : Нет
Меню
00:00:00.000 : en:00:00:00.000
00:03:36.466 : en:00:03:36.466
00:12:47.934 : en:00:12:47.934
00:18:49.420 : en:00:18:49.420
00:26:48.273 : en:00:26:48.273
00:31:44.528 : en:00:31:44.528
00:40:27.133 : en:00:40:27.133
00:46:05.513 : en:00:46:05.513
00:52:36.862 : en:00:52:36.862
00:58:12.823 : en:00:58:12.823
01:02:20.320 : en:01:02:20.320
01:12:13.496 : en:01:12:13.496
01:18:35.794 : en:01:18:35.794
01:26:08.038 : en:01:26:08.038
01:34:49.642 : en:01:34:49.642
01:40:52.380 : en:01:40:52.380
01:45:34.036 : en:01:45:34.036
01:50:01.094 : en:01:50:01.094
01:55:03.980 : en:01:55:03.980
02:03:54.969 : en:02:03:54.969
02:08:14.103 : en:02:08:14.103
02:14:14.380 : en:02:14:14.380
02:17:28.991 : en:02:17:28.991
02:22:32.544 : en:02:22:32.544
02:26:28.530 : en:02:26:28.530
02:33:00.463 : en:02:33:00.463
02:35:41.999 : en:02:35:41.999
02:41:30.931 : en:02:41:30.931


Последний раз редактировалось: Kensei (2013-04-30 09:19), всего редактировалось 1 раз

Создавать темы 29-Апр-2013 20:27

[Профиль]  [ЛС] 

Saidjhan

Стаж: 3 года 10 месяцев

Сообщений: 16

Ребят, встаньте кто нибудь на раздачу

Создавать темы 15-Янв-2014 12:59

[Профиль]  [ЛС] 

Saidjhan

Стаж: 3 года 10 месяцев

Сообщений: 16

Дайте скорости плиз

Создавать темы 16-Янв-2014 13:00

[Профиль]  [ЛС] 

Britva

Стаж: 7 лет 6 месяцев

Сообщений: 37

Симпатии: 1

вообще не качает! плииз кто нибудь встаньте на раздачу!!!

Создавать темы 11-Фев-2014 12:29

[Профиль]  [ЛС] 
Показать сообщения:    
Ответить на тему

Текущее время: 20-Окт 02:55

Часовой пояс: UTC + 5



Вы не можете начинать темы
Вы не можете отвечать на сообщения
Вы не можете редактировать свои сообщения
Вы не можете удалять свои сообщения
Вы не можете голосовать в опросах
Вы не можете прикреплять файлы к сообщениям
Вы не можете скачивать файлы