Крот / Krtek (Зденек Милер / Zdeněk Miler) 62 серии [1957 г., Рисованная анимация, TVRip]

Ответить на тему
 

begza ®

Стаж: 5 лет 10 месяцев

Сообщений: 36

Симпатии: 31

Крот / Krtek
Год выпуска: 1957
Страна: Чехия
Жанр: Рисованная анимация
Продолжительность: ~00:07:25 х ~07:30:00
Перевод: Не требуется
Режиссер: Зденек Милер / Zdeněk Miler
В ролях: Крот
Описание: Мультсериал о приключениях крота. Старый добрый поучительный мультик.
Самым популярным мультипликационным героем у чешских детей в течение многих лет остается кротик - сотворенный художником Зденьком Милером . По популярности и количеству проданных видеокассет покемоны и Гарри Поттеры, способны перегнать кротика в штанишках с большими карманами, только на время. Не смотря на ежегодное появление новых невероятных мультяшных и кино-героев, плюшевые кротики, футболки и шапки с изображением веселого любопытного зверька из мультфильма продаются с неизменным успехом. Кротик Зденька Милера, появившийся на свет в 1954 году - бессмертен.
Фигурка кротика, который вызывает улыбку и приносит радость детям во всем мире, родилась в 1954 году, а первый фильм был выпущен в 1957 году.
Качество: TVRip
Формат: AVI
Видео кодек: DivX
Аудио кодек: MP3
Видео: 682~1200 kb/s 720x576, 25,0 fps
Аудио: MP3 1 канал 64 kb/s
Не забываем про спасибо...и потом не уходите с раздачи.

Скриншоты

Список и название серий

  • 1(1957)Крот и штанишки(Krtek a kalhotkam)(TVRip)(rus).avi 133.99 MB
  • 2(1963)Крот и автомобильчик(Krtek a auticko)(ger).avi 111.70 MB
  • 3(1965)Крот и ракета(Krtek a raketa)(ger).avi 63.67 MB
  • 4(1968)Крот и радио(Krtek a tranzistor)(ger).avi 55.75 MB
  • 5(1968)Крот и зелёная звезда(Krtek a zelena hvezda)(ger).avi 49.26 MB
  • 6(1969)Крот и жевачка(Krtek a zvykacka)(ger).avi 53.64 MB
  • 7(1969)Крот в зоопарке(Krtek v Zoo)(ger).avi 48.43 MB
  • 8(1969)Крот - садовник(Krtek zahradnikem)(ger).avi 49.65 MB
  • 9(1970)Крот и ёжик(Krtek a jezek)(ger).avi 77.57 MB
  • 10(1970)Крот и леденец(Krtek a lizatko)(ger).avi 63.48 MB
  • 11(1970)Крот и телевизор(Krtek a televizor)(ger).avi 46.37 MB
  • 12(1971)Крот и зонтик(Krtek a paraplicko)(ger).avi 64.65 MB
  • 13(1972)Крот - маляр(Krtek malirem)(ger).avi 73.78 MB
  • 14(1974)Крот и спички(Krtek a zapalky)(ger).avi 40 MB
  • 15(1974)Крот и музыка(Krtek a muzika)(ger).avi 28.51 MB
  • 16(1974)Крот и телефон(Krtek a telefon)(ger).avi 30.61 MB
  • 17(1974)Крот - химик_(Krtek chemikem)(ger).avi 41.80 MB
  • 18(1975)Крот - часовщик_(Krtek hodinarem)(ger).avi 35.65 MB
  • 19(1975)Крот в пустыне(Krtek na pousti)(ger).avi 40.83 MB
  • 20(1975)Крот и Рождество(Krtek o vanocich)(ger).avi 44.83 MB
  • 21(1975)Крот - фотограф_(Krtek fotografem)(ger).avi 44.32 MB
  • 22(1975)Крот и ковёр(Krtek a koberec)(ger).avi 42.44 MB
  • 23(1975)Крот и бульдозер(Krtek a buldozer)(ger).avi 43.80 MB
  • 24(1975)Крот и яйцо(Krtek a vejce)(ger).avi 42.65 MB
  • 25(1976)Крот и карнавал_(Krtek na karnevalu)(ger).avi 31.99 MB
  • 26(1982)Крот в городе(Krtek ve meste)(ger).avi 352.84 MB
  • 27(1984)Крот во сне(Krtek ve snu)(ger).avi 348.39 MB
  • 28(1987)Крот и лекарство(Krtek a medicina)(ger).avi 354.76 MB
  • 29(1988)Крот - кинозвезда(Krtek filmova hvezda)(ger).avi 345.45 MB
  • 30(1992)Крот и орёл(Krtek a orel)(ger).avi 326.63 MB
  • 31(1994)Крот и часы(Krtek a hodiny)(ger).avi 323.94 MB
  • 32(1995)Крот и уголь(Krtek a uhli)(ger).avi 36.71 MB
  • 33(1995)Крот и робот(Krtek a robot)(ger).avi 37.26 MB
  • 34(1995)Крот и утята(Krtek a kachnicky)(ger).avi 41.25 MB
  • 35(1995)Крот и праздник(Krtek a oslava)(ger).avi 41.32 MB
  • 36(1995)Крот и уик-энд(Krtek a vikend)(ger).avi 37.84 MB
  • 37(1995)Крот и друзья(Krtek a kamaradi)(ger).avi 37.66 MB
  • 38(1997)Крот и роды(Krtek a maminka)(ger).avi 38.11 MB
  • 39(1997)Крот и метро(Krtek a metro)(ger).avi 39.44 MB
  • 40(1997)Крот и грибы(Krtek a houby)(ger).avi 36.35 MB
  • 41(1997)Крот и зайчонок(Krtek a zajicek)(ger).avi 39.31 MB
  • 42(1997)Крот и снеговик(Krtek a snehulak)(ger).avi 37.96 MB
  • 43(1998)Крот и мышка(Krtek a myska)(ger).avi 40.86 MB
  • 44(1998)Крот и отпуск(Krtek a dovolena).avi 12.11 MB
  • 45(1998)Крот и черешня(Krtek a tresne).avi 4.01 MB
  • 46(1998)Крот и коробка_(Krtek a krabice).avi 3.65 MB
  • 47(1998)Крот и улитка(Krtek a snek).avi 7.90 MB
  • 48(1998)Крот и пузыри(Krtek a balonek).avi 2.81 MB
  • 49(1998)Крот и драгоценности(Krtek a sperky).avi 4.53 MB
  • 50(1998)Крот и телевидение(Krtek a televize).avi 3.03 MB
  • 51(1998)Крот и лягушка(Krtek a zabka).avi 6.42 MB
  • 52(1998)Крот и шляпа(Krtek a klobouk).avi 5.12 MB
  • 53(1998)Крот и домик(Krtek a domek).avi 5.98 MB
  • 54(1998)Крот - художник(Krtek - malir).avi 3.70 MB
  • 55(1998)Крот и уточка(Krtek a kacenka).avi 6.35 MB
  • 56(1998)Крот -волшебник(Krtek - kouzelnik).avi 6.66 MB
  • 57(1999)Крот и флейта(Krtek a fletna)(cze).avi 49.87 MB
  • 58(1999)Крот и родник(Krtek a pramen)(cze).avi 32.29 MB
  • 59(1999)Крот и кисточка(Krtek a stoura)(cze).avi 42.91 MB
  • 60(2000)Крот и рыбка(Krtek a rybka)(cze).avi 24.79 MB
  • 61(2000)Крот и ласточка(Krtek a vlastovka)(cze).avi 50.00 MB
  • 62(2002)Крот и лягушка_(Krtek a zabka)(cze)

MI

МедиаИнфо1.Крот и штанишки

Общее
Полное имя : D:\Krot\01_1957_Крот и штанишки_(Krtek a kalhotkam)(TVRip)(rus).avi
Формат : AVI
Формат/Информация : Audio Video Interleave
Размер файла : 134 Мбайт
Продолжительность : 11 м.
Общий поток : 1581 Кбит/сек
Программа кодирования : VirtualDubMod 1.5.4.1 (build 2066/release)
Библиотека кодирования : VirtualDubMod build 2066/release
Видео
Идентификатор : 0
Формат : MPEG-4 Visual
Параметр BVOP формата : Да
Параметр QPel формата : Нет
Параметр GMC формата : Без точки перехода
Параметр матрицы формата : Default (H.263)
Идентификатор кодека : DIVX
Идентификатор кодека/Информация : Project Mayo
Идентификатор кодека/Подсказка : DivX 4
Продолжительность : 11 м.
Битрейт : 1507 Кбит/сек
Ширина : 720 пикселей
Высота : 576 пикселей
Соотношение сторон : 5:4
Частота кадров : 25,000 кадров/сек
Стандарт вещания : PAL
Цветовое пространство : YUV
Субдискретизация насыщенности : 4:2:0
Битовая глубина : 8 бит
Тип развёртки : Прогрессивная
Метод сжатия : С потерями
Бит/(Пиксели*Кадры) : 0.145
Размер потока : 128 Мбайт (95%)
Аудио
Идентификатор : 1
Формат : MPEG Audio
Версия формата : Version 1
Профиль формата : Layer 3
Идентификатор кодека : 55
Идентификатор кодека/Подсказка : MP3
Продолжительность : 11 м.
Вид битрейта : Постоянный
Битрейт : 64,0 Кбит/сек
Каналы : 1 канал
Частота : 44,1 КГц
Метод сжатия : С потерями
Размер потока : 5,42 Мбайт (4%)
Выравнивание : Разделение по промежуткам
Продолжительность промежутка : 40 мс. (1,00 видеокадр)
Время предзагрузки промежутка : 500 мс.

МедиаИнфо2.Крот и автомобильчик

Общее
Полное имя : D:\Krot\02_1963_Крот и автомобильчик_(Krtek a auticko)(ger).avi
Формат : AVI
Формат/Информация : Audio Video Interleave
Размер файла : 112 Мбайт
Продолжительность : 14 м.
Общий поток : 1080 Кбит/сек
Библиотека кодирования : VirtualDub build 12667/release
Видео
Идентификатор : 0
Формат : MPEG-4 Visual
Параметр BVOP формата : Да
Параметр QPel формата : Нет
Параметр GMC формата : Без точки перехода
Параметр матрицы формата : Default (H.263)
Идентификатор кодека : DIVX
Идентификатор кодека/Информация : Project Mayo
Идентификатор кодека/Подсказка : DivX 4
Продолжительность : 14 м.
Битрейт : 1006 Кбит/сек
Ширина : 720 пикселей
Высота : 576 пикселей
Соотношение сторон : 5:4
Частота кадров : 25,000 кадров/сек
Стандарт вещания : PAL
Цветовое пространство : YUV
Субдискретизация насыщенности : 4:2:0
Битовая глубина : 8 бит
Тип развёртки : Прогрессивная
Метод сжатия : С потерями
Бит/(Пиксели*Кадры) : 0.097
Размер потока : 104 Мбайт (93%)
Аудио
Идентификатор : 1
Формат : MPEG Audio
Версия формата : Version 1
Профиль формата : Layer 3
Идентификатор кодека : 55
Идентификатор кодека/Подсказка : MP3
Продолжительность : 14 м.
Вид битрейта : Постоянный
Битрейт : 64,0 Кбит/сек
Каналы : 1 канал
Частота : 48,0 КГц
Метод сжатия : С потерями
Размер потока : 6,62 Мбайт (6%)
Выравнивание : Разделение по промежуткам
Продолжительность промежутка : 40 мс. (1,00 видеокадр)
Время предзагрузки промежутка : 500 мс.

МедиаИнфо3.Крот и ракета

Общее
Полное имя : D:\Krot\03_1965_Крот и ракета_(Krtek a raketa)(ger).avi
Формат : AVI
Формат/Информация : Audio Video Interleave
Размер файла : 63,7 Мбайт
Продолжительность : 8 м. 37 с.
Общий поток : 1032 Кбит/сек
Библиотека кодирования : VirtualDub build 12667/release
Видео
Идентификатор : 0
Формат : MPEG-4 Visual
Параметр BVOP формата : Да
Параметр QPel формата : Нет
Параметр GMC формата : Без точки перехода
Параметр матрицы формата : Default (H.263)
Идентификатор кодека : DIVX
Идентификатор кодека/Информация : Project Mayo
Идентификатор кодека/Подсказка : DivX 4
Продолжительность : 8 м. 37 с.
Битрейт : 958 Кбит/сек
Ширина : 720 пикселей
Высота : 576 пикселей
Соотношение сторон : 5:4
Частота кадров : 25,000 кадров/сек
Стандарт вещания : PAL
Цветовое пространство : YUV
Субдискретизация насыщенности : 4:2:0
Битовая глубина : 8 бит
Тип развёртки : Прогрессивная
Метод сжатия : С потерями
Бит/(Пиксели*Кадры) : 0.092
Размер потока : 59,1 Мбайт (93%)
Аудио
Идентификатор : 1
Формат : MPEG Audio
Версия формата : Version 1
Профиль формата : Layer 3
Идентификатор кодека : 55
Идентификатор кодека/Подсказка : MP3
Продолжительность : 8 м. 37 с.
Вид битрейта : Постоянный
Битрейт : 64,0 Кбит/сек
Каналы : 1 канал
Частота : 48,0 КГц
Метод сжатия : С потерями
Задержка видео : 19 мс.
Размер потока : 3,95 Мбайт (6%)
Выравнивание : Разделение по промежуткам
Продолжительность промежутка : 40 мс. (1,00 видеокадр)
Время предзагрузки промежутка : 499 мс.

МедиаИнфо4 .Крот и радио

Общее
Полное имя : D:\Krot\04_1968_Крот и радио_(Krtek a tranzistor)(ger).avi
Формат : AVI
Формат/Информация : Audio Video Interleave
Размер файла : 55,8 Мбайт
Продолжительность : 8 м. 10 с.
Общий поток : 954 Кбит/сек
Библиотека кодирования : VirtualDub build 12667/release
Видео
Идентификатор : 0
Формат : MPEG-4 Visual
Параметр BVOP формата : Да
Параметр QPel формата : Нет
Параметр GMC формата : Без точки перехода
Параметр матрицы формата : Default (H.263)
Идентификатор кодека : DIVX
Идентификатор кодека/Информация : Project Mayo
Идентификатор кодека/Подсказка : DivX 4
Продолжительность : 8 м. 10 с.
Битрейт : 880 Кбит/сек
Ширина : 720 пикселей
Высота : 576 пикселей
Соотношение сторон : 5:4
Частота кадров : 25,000 кадров/сек
Стандарт вещания : PAL
Цветовое пространство : YUV
Субдискретизация насыщенности : 4:2:0
Битовая глубина : 8 бит
Тип развёртки : Прогрессивная
Метод сжатия : С потерями
Бит/(Пиксели*Кадры) : 0.085
Размер потока : 51,4 Мбайт (92%)
Аудио
Идентификатор : 1
Формат : MPEG Audio
Версия формата : Version 1
Профиль формата : Layer 3
Идентификатор кодека : 55
Идентификатор кодека/Подсказка : MP3
Продолжительность : 8 м. 10 с.
Вид битрейта : Постоянный
Битрейт : 64,0 Кбит/сек
Каналы : 1 канал
Частота : 48,0 КГц
Метод сжатия : С потерями
Размер потока : 3,74 Мбайт (7%)
Выравнивание : Разделение по промежуткам
Продолжительность промежутка : 40 мс. (1,00 видеокадр)
Время предзагрузки промежутка : 500 мс.

МедиаИнфо5.Крот и зеленая звезда

Общее
Полное имя : D:\Krot\05_1968_Крот и зелёная звезда_(Krtek a zelena hvezda)(ger).avi
Формат : AVI
Формат/Информация : Audio Video Interleave
Размер файла : 49,3 Мбайт
Продолжительность : 6 м. 53 с.
Общий поток : 1000 Кбит/сек
Библиотека кодирования : VirtualDub build 12667/release
Видео
Идентификатор : 0
Формат : MPEG-4 Visual
Параметр BVOP формата : Да
Параметр QPel формата : Нет
Параметр GMC формата : Без точки перехода
Параметр матрицы формата : Default (H.263)
Идентификатор кодека : DIVX
Идентификатор кодека/Информация : Project Mayo
Идентификатор кодека/Подсказка : DivX 4
Продолжительность : 6 м. 53 с.
Битрейт : 926 Кбит/сек
Ширина : 720 пикселей
Высота : 576 пикселей
Соотношение сторон : 5:4
Частота кадров : 25,000 кадров/сек
Стандарт вещания : PAL
Цветовое пространство : YUV
Субдискретизация насыщенности : 4:2:0
Битовая глубина : 8 бит
Тип развёртки : Прогрессивная
Метод сжатия : С потерями
Бит/(Пиксели*Кадры) : 0.089
Размер потока : 45,6 Мбайт (93%)
Аудио
Идентификатор : 1
Формат : MPEG Audio
Версия формата : Version 1
Профиль формата : Layer 3
Идентификатор кодека : 55
Идентификатор кодека/Подсказка : MP3
Продолжительность : 6 м. 53 с.
Вид битрейта : Постоянный
Битрейт : 64,0 Кбит/сек
Каналы : 1 канал
Частота : 48,0 КГц
Метод сжатия : С потерями
Задержка видео : 8 мс.
Размер потока : 3,15 Мбайт (6%)
Выравнивание : Разделение по промежуткам
Продолжительность промежутка : 40 мс. (1,00 видеокадр)
Время предзагрузки промежутка : 500 мс.

МедиаИнфо6. Крот и жевачка

Общее
Полное имя : D:\Krot\06_1969_Крот и жевачка_(Krtek a zvykacka)(ger).avi
Формат : AVI
Формат/Информация : Audio Video Interleave
Размер файла : 53,6 Мбайт
Продолжительность : 7 м. 19 с.
Общий поток : 1023 Кбит/сек
Библиотека кодирования : VirtualDub build 13870/release
Видео
Идентификатор : 0
Формат : MPEG-4 Visual
Параметр BVOP формата : Да
Параметр QPel формата : Нет
Параметр GMC формата : Без точки перехода
Параметр матрицы формата : Default (H.263)
Идентификатор кодека : DX50
Идентификатор кодека/Подсказка : DivX 5
Продолжительность : 7 м. 19 с.
Битрейт : 950 Кбит/сек
Ширина : 720 пикселей
Высота : 576 пикселей
Соотношение сторон : 5:4
Частота кадров : 25,000 кадров/сек
Стандарт вещания : PAL
Цветовое пространство : YUV
Субдискретизация насыщенности : 4:2:0
Битовая глубина : 8 бит
Тип развёртки : Прогрессивная
Метод сжатия : С потерями
Бит/(Пиксели*Кадры) : 0.092
Размер потока : 49,8 Мбайт (93%)
Библиотека кодирования : DivX 5.0.2 (UTC 2002-05-16)
Аудио
Идентификатор : 1
Формат : MPEG Audio
Версия формата : Version 1
Профиль формата : Layer 3
Идентификатор кодека : 55
Идентификатор кодека/Подсказка : MP3
Продолжительность : 7 м. 19 с.
Вид битрейта : Постоянный
Битрейт : 64,0 Кбит/сек
Каналы : 1 канал
Частота : 48,0 КГц
Метод сжатия : С потерями
Задержка видео : 16 мс.
Размер потока : 3,35 Мбайт (6%)
Выравнивание : Разделение по промежуткам
Продолжительность промежутка : 40 мс. (1,00 видеокадр)
Время предзагрузки промежутка : 500 мс.

МедиаИнфо7.Крот в зоопарке

Общее
Полное имя : D:\Krot\07_1969_Крот в зоопарке_(Krtek v Zoo)(ger).avi
Формат : AVI
Формат/Информация : Audio Video Interleave
Размер файла : 48,4 Мбайт
Продолжительность : 6 м. 5 с.
Общий поток : 1110 Кбит/сек
Библиотека кодирования : VirtualDub build 12667/release
Видео
Идентификатор : 0
Формат : MPEG-4 Visual
Параметр BVOP формата : Да
Параметр QPel формата : Нет
Параметр GMC формата : Без точки перехода
Параметр матрицы формата : Default (H.263)
Идентификатор кодека : DIVX
Идентификатор кодека/Информация : Project Mayo
Идентификатор кодека/Подсказка : DivX 4
Продолжительность : 6 м. 5 с.
Битрейт : 1036 Кбит/сек
Ширина : 720 пикселей
Высота : 576 пикселей
Соотношение сторон : 5:4
Частота кадров : 25,000 кадров/сек
Стандарт вещания : PAL
Цветовое пространство : YUV
Субдискретизация насыщенности : 4:2:0
Битовая глубина : 8 бит
Тип развёртки : Прогрессивная
Метод сжатия : С потерями
Бит/(Пиксели*Кадры) : 0.100
Размер потока : 45,2 Мбайт (93%)
Аудио
Идентификатор : 1
Формат : MPEG Audio
Версия формата : Version 1
Профиль формата : Layer 3
Идентификатор кодека : 55
Идентификатор кодека/Подсказка : MP3
Продолжительность : 6 м. 5 с.
Вид битрейта : Постоянный
Битрейт : 64,0 Кбит/сек
Каналы : 1 канал
Частота : 48,0 КГц
Метод сжатия : С потерями
Размер потока : 2,79 Мбайт (6%)
Выравнивание : Разделение по промежуткам
Продолжительность промежутка : 40 мс. (1,00 видеокадр)
Время предзагрузки промежутка : 500 мс.

МедиаИнфо 8.Крот-садовник

Общее
Полное имя : D:\Krot\08_1969_Крот - садовник_(Krtek zahradnikem)(ger).avi
Формат : AVI
Формат/Информация : Audio Video Interleave
Размер файла : 49,7 Мбайт
Продолжительность : 6 м. 53 с.
Общий поток : 1008 Кбит/сек
Библиотека кодирования : VirtualDub build 12667/release
Видео
Идентификатор : 0
Формат : MPEG-4 Visual
Параметр BVOP формата : Да
Параметр QPel формата : Нет
Параметр GMC формата : Без точки перехода
Параметр матрицы формата : Default (H.263)
Идентификатор кодека : DIVX
Идентификатор кодека/Информация : Project Mayo
Идентификатор кодека/Подсказка : DivX 4
Продолжительность : 6 м. 53 с.
Битрейт : 935 Кбит/сек
Ширина : 720 пикселей
Высота : 576 пикселей
Соотношение сторон : 5:4
Частота кадров : 25,000 кадров/сек
Стандарт вещания : PAL
Цветовое пространство : YUV
Субдискретизация насыщенности : 4:2:0
Битовая глубина : 8 бит
Тип развёртки : Прогрессивная
Метод сжатия : С потерями
Бит/(Пиксели*Кадры) : 0.090
Размер потока : 46,0 Мбайт (93%)
Аудио
Идентификатор : 1
Формат : MPEG Audio
Версия формата : Version 1
Профиль формата : Layer 3
Идентификатор кодека : 55
Идентификатор кодека/Подсказка : MP3
Продолжительность : 6 м. 52 с.
Вид битрейта : Постоянный
Битрейт : 64,0 Кбит/сек
Каналы : 1 канал
Частота : 48,0 КГц
Метод сжатия : С потерями
Задержка видео : 8 мс.
Размер потока : 3,15 Мбайт (6%)
Выравнивание : Разделение по промежуткам
Продолжительность промежутка : 40 мс. (1,00 видеокадр)
Время предзагрузки промежутка : 500 мс.

МедиаИнфо 9. Крот и ёжик

Общее
Полное имя : D:\Krot\09_1970_Крот и ёжик_(Krtek a jezek)(ger).avi
Формат : AVI
Формат/Информация : Audio Video Interleave
Размер файла : 77,6 Мбайт
Продолжительность : 8 м. 26 с.
Общий поток : 1284 Кбит/сек
Библиотека кодирования : VirtualDub build 12667/release
Видео
Идентификатор : 0
Формат : MPEG-4 Visual
Параметр BVOP формата : Да
Параметр QPel формата : Нет
Параметр GMC формата : Без точки перехода
Параметр матрицы формата : Default (H.263)
Идентификатор кодека : DIVX
Идентификатор кодека/Информация : Project Mayo
Идентификатор кодека/Подсказка : DivX 4
Продолжительность : 8 м. 26 с.
Битрейт : 1210 Кбит/сек
Ширина : 720 пикселей
Высота : 576 пикселей
Соотношение сторон : 5:4
Частота кадров : 25,000 кадров/сек
Стандарт вещания : PAL
Цветовое пространство : YUV
Субдискретизация насыщенности : 4:2:0
Битовая глубина : 8 бит
Тип развёртки : Прогрессивная
Метод сжатия : С потерями
Бит/(Пиксели*Кадры) : 0.117
Размер потока : 73,1 Мбайт (94%)
Аудио
Идентификатор : 1
Формат : MPEG Audio
Версия формата : Version 1
Профиль формата : Layer 3
Идентификатор кодека : 55
Идентификатор кодека/Подсказка : MP3
Продолжительность : 8 м. 26 с.
Вид битрейта : Постоянный
Битрейт : 64,0 Кбит/сек
Каналы : 1 канал
Частота : 48,0 КГц
Метод сжатия : С потерями
Размер потока : 3,87 Мбайт (5%)
Выравнивание : Разделение по промежуткам
Продолжительность промежутка : 40 мс. (1,00 видеокадр)
Время предзагрузки промежутка : 500 мс.

МедиаИнфо 10.Крот и лединец

Общее
Полное имя : D:\Krot\10_1970_Крот и леденец_(Krtek a lizatko)(ger).avi
Формат : AVI
Формат/Информация : Audio Video Interleave
Размер файла : 63,5 Мбайт
Продолжительность : 8 м. 24 с.
Общий поток : 1055 Кбит/сек
Библиотека кодирования : VirtualDub build 12667/release
Видео
Идентификатор : 0
Формат : MPEG-4 Visual
Параметр BVOP формата : Да
Параметр QPel формата : Нет
Параметр GMC формата : Без точки перехода
Параметр матрицы формата : Default (H.263)
Идентификатор кодека : DIVX
Идентификатор кодека/Информация : Project Mayo
Идентификатор кодека/Подсказка : DivX 4
Продолжительность : 8 м. 24 с.
Битрейт : 981 Кбит/сек
Ширина : 720 пикселей
Высота : 576 пикселей
Соотношение сторон : 5:4
Частота кадров : 25,000 кадров/сек
Стандарт вещания : PAL
Цветовое пространство : YUV
Субдискретизация насыщенности : 4:2:0
Битовая глубина : 8 бит
Тип развёртки : Прогрессивная
Метод сжатия : С потерями
Бит/(Пиксели*Кадры) : 0.095
Размер потока : 59,0 Мбайт (93%)
Аудио
Идентификатор : 1
Формат : MPEG Audio
Версия формата : Version 1
Профиль формата : Layer 3
Идентификатор кодека : 55
Идентификатор кодека/Подсказка : MP3
Продолжительность : 8 м. 24 с.
Вид битрейта : Постоянный
Битрейт : 64,0 Кбит/сек
Каналы : 1 канал
Частота : 48,0 КГц
Метод сжатия : С потерями
Размер потока : 3,85 Мбайт (6%)
Выравнивание : Разделение по промежуткам
Продолжительность промежутка : 40 мс. (1,00 видеокадр)
Время предзагрузки промежутка : 500 мс.

МедиаИнфо 11 Крот и телевизор

Общее
Полное имя : D:\Krot\11_1970_Крот и телевизор_(Krtek a televizor)(ger).avi
Формат : AVI
Формат/Информация : Audio Video Interleave
Размер файла : 46,4 Мбайт
Продолжительность : 5 м. 26 с.
Общий поток : 1191 Кбит/сек
Библиотека кодирования : VirtualDub build 12667/release
Видео
Идентификатор : 0
Формат : MPEG-4 Visual
Параметр BVOP формата : Да
Параметр QPel формата : Нет
Параметр GMC формата : Без точки перехода
Параметр матрицы формата : Default (H.263)
Идентификатор кодека : DIVX
Идентификатор кодека/Информация : Project Mayo
Идентификатор кодека/Подсказка : DivX 4
Продолжительность : 5 м. 26 с.
Битрейт : 1117 Кбит/сек
Ширина : 720 пикселей
Высота : 576 пикселей
Соотношение сторон : 5:4
Частота кадров : 25,000 кадров/сек
Стандарт вещания : PAL
Цветовое пространство : YUV
Субдискретизация насыщенности : 4:2:0
Битовая глубина : 8 бит
Тип развёртки : Прогрессивная
Метод сжатия : С потерями
Бит/(Пиксели*Кадры) : 0.108
Размер потока : 43,5 Мбайт (94%)
Аудио
Идентификатор : 1
Формат : MPEG Audio
Версия формата : Version 1
Профиль формата : Layer 3
Идентификатор кодека : 55
Идентификатор кодека/Подсказка : MP3
Продолжительность : 5 м. 26 с.
Вид битрейта : Постоянный
Битрейт : 64,0 Кбит/сек
Каналы : 1 канал
Частота : 48,0 КГц
Метод сжатия : С потерями
Задержка видео : 8 мс.
Размер потока : 2,49 Мбайт (5%)
Выравнивание : Разделение по промежуткам
Продолжительность промежутка : 40 мс. (1,00 видеокадр)
Время предзагрузки промежутка : 500 мс.

МедиаИнфо 12. Крот и зонтик

Общее
Полное имя : D:\Krot\12_1971_Крот и зонтик_(Krtek a paraplicko)(ger).avi
Формат : AVI
Формат/Информация : Audio Video Interleave
Размер файла : 64,7 Мбайт
Продолжительность : 7 м. 16 с.
Общий поток : 1242 Кбит/сек
Библиотека кодирования : VirtualDub build 13870/release
Видео
Идентификатор : 0
Формат : MPEG-4 Visual
Параметр BVOP формата : Да
Параметр QPel формата : Нет
Параметр GMC формата : Без точки перехода
Параметр матрицы формата : Default (H.263)
Идентификатор кодека : DX50
Идентификатор кодека/Подсказка : DivX 5
Продолжительность : 7 м. 16 с.
Битрейт : 1168 Кбит/сек
Ширина : 720 пикселей
Высота : 576 пикселей
Соотношение сторон : 5:4
Частота кадров : 25,000 кадров/сек
Стандарт вещания : PAL
Цветовое пространство : YUV
Субдискретизация насыщенности : 4:2:0
Битовая глубина : 8 бит
Тип развёртки : Прогрессивная
Метод сжатия : С потерями
Бит/(Пиксели*Кадры) : 0.113
Размер потока : 60,8 Мбайт (94%)
Библиотека кодирования : DivX 5.0.2 (UTC 2002-05-16)
Аудио
Идентификатор : 1
Формат : MPEG Audio
Версия формата : Version 1
Профиль формата : Layer 3
Идентификатор кодека : 55
Идентификатор кодека/Подсказка : MP3
Продолжительность : 7 м. 16 с.
Вид битрейта : Постоянный
Битрейт : 64,0 Кбит/сек
Каналы : 1 канал
Частота : 48,0 КГц
Метод сжатия : С потерями
Задержка видео : 8 мс.
Размер потока : 3,33 Мбайт (5%)
Выравнивание : Разделение по промежуткам
Продолжительность промежутка : 40 мс. (1,00 видеокадр)
Время предзагрузки промежутка : 500 мс.

МедиаИнфо13. Крот-маляр

Общее
Полное имя : D:\Krot\13_1972_Крот - маляр_(Krtek malirem)(ger).avi
Формат : AVI
Формат/Информация : Audio Video Interleave
Размер файла : 73,8 Мбайт
Продолжительность : 9 м. 35 с.
Общий поток : 1075 Кбит/сек
Библиотека кодирования : VirtualDub build 13870/release
Видео
Идентификатор : 0
Формат : MPEG-4 Visual
Параметр BVOP формата : Да
Параметр QPel формата : Нет
Параметр GMC формата : Без точки перехода
Параметр матрицы формата : Default (H.263)
Идентификатор кодека : DX50
Идентификатор кодека/Подсказка : DivX 5
Продолжительность : 9 м. 35 с.
Битрейт : 1001 Кбит/сек
Ширина : 720 пикселей
Высота : 576 пикселей
Соотношение сторон : 5:4
Частота кадров : 25,000 кадров/сек
Стандарт вещания : PAL
Цветовое пространство : YUV
Субдискретизация насыщенности : 4:2:0
Битовая глубина : 8 бит
Тип развёртки : Прогрессивная
Метод сжатия : С потерями
Бит/(Пиксели*Кадры) : 0.097
Размер потока : 68,7 Мбайт (93%)
Библиотека кодирования : DivX 5.0.2 (UTC 2002-05-16)
Аудио
Идентификатор : 1
Формат : MPEG Audio
Версия формата : Version 1
Профиль формата : Layer 3
Идентификатор кодека : 55
Идентификатор кодека/Подсказка : MP3
Продолжительность : 9 м. 35 с.
Вид битрейта : Постоянный
Битрейт : 64,0 Кбит/сек
Каналы : 1 канал
Частота : 48,0 КГц
Метод сжатия : С потерями
Задержка видео : 8 мс.
Размер потока : 4,39 Мбайт (6%)
Выравнивание : Разделение по промежуткам
Продолжительность промежутка : 40 мс. (1,00 видеокадр)
Время предзагрузки промежутка : 500 мс.

МедиаИнфо14.Крот и спички

Общее
Полное имя : D:\Krot\14_1974_Крот и спички_(Krtek a zapalky)(ger).avi
Формат : AVI
Формат/Информация : Audio Video Interleave
Размер файла : 40,0 Мбайт
Продолжительность : 5 м. 27 с.
Общий поток : 1025 Кбит/сек
Библиотека кодирования : VirtualDub build 12667/release
Видео
Идентификатор : 0
Формат : MPEG-4 Visual
Параметр BVOP формата : Да
Параметр QPel формата : Нет
Параметр GMC формата : Без точки перехода
Параметр матрицы формата : Default (H.263)
Идентификатор кодека : DIVX
Идентификатор кодека/Информация : Project Mayo
Идентификатор кодека/Подсказка : DivX 4
Продолжительность : 5 м. 27 с.
Битрейт : 951 Кбит/сек
Ширина : 720 пикселей
Высота : 576 пикселей
Соотношение сторон : 5:4
Частота кадров : 25,000 кадров/сек
Стандарт вещания : PAL
Цветовое пространство : YUV
Субдискретизация насыщенности : 4:2:0
Битовая глубина : 8 бит
Тип развёртки : Прогрессивная
Метод сжатия : С потерями
Бит/(Пиксели*Кадры) : 0.092
Размер потока : 37,1 Мбайт (93%)
Аудио
Идентификатор : 1
Формат : MPEG Audio
Версия формата : Version 1
Профиль формата : Layer 3
Идентификатор кодека : 55
Идентификатор кодека/Подсказка : MP3
Продолжительность : 5 м. 27 с.
Вид битрейта : Постоянный
Битрейт : 64,0 Кбит/сек
Каналы : 1 канал
Частота : 48,0 КГц
Метод сжатия : С потерями
Задержка видео : 8 мс.
Размер потока : 2,50 Мбайт (6%)
Выравнивание : Разделение по промежуткам
Продолжительность промежутка : 40 мс. (1,00 видеокадр)
Время предзагрузки промежутка : 500 мс.

МедиаИнфо 15.Крот и музыка

Общее
Полное имя : D:\Krot\15_1974_Крот и музыка_(Krtek a muzika)(ger).avi
Формат : AVI
Формат/Информация : Audio Video Interleave
Размер файла : 28,5 Мбайт
Продолжительность : 5 м. 16 с.
Общий поток : 756 Кбит/сек
Библиотека кодирования : VirtualDub build 13870/release
Видео
Идентификатор : 0
Формат : MPEG-4 Visual
Параметр BVOP формата : Да
Параметр QPel формата : Нет
Параметр GMC формата : Без точки перехода
Параметр матрицы формата : Default (H.263)
Идентификатор кодека : DX50
Идентификатор кодека/Подсказка : DivX 5
Продолжительность : 5 м. 16 с.
Битрейт : 682 Кбит/сек
Ширина : 720 пикселей
Высота : 576 пикселей
Соотношение сторон : 5:4
Частота кадров : 25,000 кадров/сек
Стандарт вещания : PAL
Цветовое пространство : YUV
Субдискретизация насыщенности : 4:2:0
Битовая глубина : 8 бит
Тип развёртки : Прогрессивная
Метод сжатия : С потерями
Бит/(Пиксели*Кадры) : 0.066
Размер потока : 25,7 Мбайт (90%)
Библиотека кодирования : DivX 5.0.2 (UTC 2002-05-16)
Аудио
Идентификатор : 1
Формат : MPEG Audio
Версия формата : Version 1
Профиль формата : Layer 3
Идентификатор кодека : 55
Идентификатор кодека/Подсказка : MP3
Продолжительность : 5 м. 16 с.
Вид битрейта : Постоянный
Битрейт : 64,0 Кбит/сек
Каналы : 1 канал
Частота : 48,0 КГц
Метод сжатия : С потерями
Размер потока : 2,41 Мбайт (8%)
Выравнивание : Разделение по промежуткам
Продолжительность промежутка : 40 мс. (1,00 видеокадр)
Время предзагрузки промежутка : 500 мс.

МедиаИнфо 16.Крот и телефон

Общее
Полное имя : D:\Krot\16_1974_Крот и телефон_(Krtek a telefon)(ger).avi
Формат : AVI
Формат/Информация : Audio Video Interleave
Размер файла : 30,6 Мбайт
Продолжительность : 5 м. 24 с.
Общий поток : 791 Кбит/сек
Библиотека кодирования : VirtualDub build 13870/release
Видео
Идентификатор : 0
Формат : MPEG-4 Visual
Параметр BVOP формата : Да
Параметр QPel формата : Нет
Параметр GMC формата : Без точки перехода
Параметр матрицы формата : Default (H.263)
Идентификатор кодека : DX50
Идентификатор кодека/Подсказка : DivX 5
Продолжительность : 5 м. 24 с.
Битрейт : 717 Кбит/сек
Ширина : 720 пикселей
Высота : 576 пикселей
Соотношение сторон : 5:4
Частота кадров : 25,000 кадров/сек
Стандарт вещания : PAL
Цветовое пространство : YUV
Субдискретизация насыщенности : 4:2:0
Битовая глубина : 8 бит
Тип развёртки : Прогрессивная
Метод сжатия : С потерями
Бит/(Пиксели*Кадры) : 0.069
Размер потока : 27,7 Мбайт (91%)
Библиотека кодирования : DivX 5.0.2 (UTC 2002-05-16)
Аудио
Идентификатор : 1
Формат : MPEG Audio
Версия формата : Version 1
Профиль формата : Layer 3
Идентификатор кодека : 55
Идентификатор кодека/Подсказка : MP3
Продолжительность : 5 м. 24 с.
Вид битрейта : Постоянный
Битрейт : 64,0 Кбит/сек
Каналы : 1 канал
Частота : 48,0 КГц
Метод сжатия : С потерями
Задержка видео : 16 мс.
Размер потока : 2,48 Мбайт (8%)
Выравнивание : Разделение по промежуткам
Продолжительность промежутка : 40 мс. (1,00 видеокадр)
Время предзагрузки промежутка : 500 мс.

Создавать темы 03-Май-2013 22:13

[Профиль]  [ЛС] 

kolyakolya

Стаж: 5 лет 6 месяцев

Сообщений: 8

Симпатии: 1

begza, пожалюста раздавой мултик крот осталос 4 %

Создавать темы 08-Июн-2013 06:28

[Профиль]  [ЛС] 

Xurshid27

Стаж: 7 лет 7 месяцев

Сообщений: 33

Симпатии: 2

УРААААА БУДУ КАЧАТЬ!!!! СПАСИБО БОЛЬШОЕ!!!!

Создавать темы 09-Июн-2013 17:30

[Профиль]  [ЛС] 

vkimnote

Стаж: 4 года 5 месяцев

Сообщений: 10

раздайте кто нибудь,пожалуйста!

Создавать темы 20-Июн-2013 01:21

[Профиль]  [ЛС] 

Ирина

Стаж: 3 года 10 месяцев

Сообщений: 57

Симпатии: 11

Спасибо огромное. Я помню этот мультик из моего далекого детства. Скачала внуку. Уверена ему понравится. Скачала 14 часов назад. Размер "раздачи" до сих пор = 0. Мне еще постоять подождать или можно выйти?

Создавать темы 02-Июл-2014 21:51

[Профиль]  [ЛС] 

Ирина

Стаж: 3 года 10 месяцев

Сообщений: 57

Симпатии: 11

Ой, я оказывается не у Вас скачала. Но там, где я скачала серии с 1968 г. А у Вас с 1957. Это что-то новое, вернее "старое"? Если да, то обязательно скачаю тоже. Заранее спасибо.

Создавать темы 02-Июл-2014 22:02

[Профиль]  [ЛС] 

Ирина

Стаж: 3 года 10 месяцев

Сообщений: 57

Симпатии: 11

Спасибо, скачала недостающие серии.

Создавать темы 03-Июл-2014 21:16

[Профиль]  [ЛС] 

DJ.Remix_93

Стаж: 3 года 9 месяцев

Сообщений: 12

Симпатии: 1

Скорость дайте!!!!!!!

Создавать темы 11-Авг-2014 20:51

[Профиль]  [ЛС] 
Показать сообщения:    
Ответить на тему

Текущее время: 23-Ноя 10:44

Часовой пояс: UTC + 5



Вы не можете начинать темы
Вы не можете отвечать на сообщения
Вы не можете редактировать свои сообщения
Вы не можете удалять свои сообщения
Вы не можете голосовать в опросах
Вы не можете прикреплять файлы к сообщениям
Вы не можете скачивать файлы