21 и больше / 21 & Over (Джон Лукас / Jon Lucas, Скотт Мур / Scott Moore) [2013 г., комедия, DVDRip-AVC] [Лицензия]

Ответить на тему
 

atgerkin ®

Стаж: 7 лет

Сообщений: 247

Симпатии: 78

21 и больше / 21 & Over-НАКОНЕЦ-ТО-- Год выпуска: 2013
Страна: США
Жанр: комедия
Продолжительность: 01:29:20
Перевод: Профессиональный (дублированный) [Лицензия]-Режиссер: Джон Лукас / Jon Lucas, Скотт Мур / Scott Moore
-В ролях: Скайлар Эстин, Сара Райт, Майлз Теллер, Джонатан Кельтц, Джастин Чон, Сара Райт, Джонатан Кельтц, Франсуа Чау, Расселл Ходжкинсон, Дэниэл Буко, Расселл Меркадо, Джози Лор...
Роли дублировали: Сергей Смирнов, Александр Дасевич, Даниил Эльдаров-Описание: Двое друзей подбивают третьего отметить его 21-ый день рождения прямо накануне важного экзамена в медицинский колледж. Никто не замечает, как одна кружка пива превращается в море выпивки, а вечеринка в бурное и незабываемое приключение с музыкой и девчонками. И где же они окажутся утром?-Премьера (мир): 28 февраля 2013
Премьера (РФ) : 7 марта 2013, «Парадиз»
-Качество: DVDRip-AVC
Формат: MKV
Видео кодек: H.264
Аудио кодек: AC3
Видео: [email protected] (16:9), 25.000 fps, H264 ~ 1947 kbps avg, 0.188 bit/pixel
Аудио: 48 kHz, AC3 6 ch, 384 kbps, русский

MediaInfo

Общее
Полное имя : 21.i.bolshe.2013.D.DVDRip-AVC_[Youtracker]_by_avproh.mkv
Формат : Matroska
Версия формата : Version 2
Размер файла : 1,45 Гбайт
Продолжительность : 1 ч. 29 м.
Общий поток : 2329 Кбит/сек
Дата кодирования : UTC 2013-04-26 01:50:08
Программа кодирования : mkvmerge v5.0.1 ('Es ist Sommer') built on Nov 6 2011 16:23:40
Библиотека кодирования : libebml v1.2.2 + libmatroska v1.3.0
Видео
Идентификатор : 1
Формат : AVC
Формат/Информация : Advanced Video Codec
Профиль формата : [email protected]
Параметр CABAC формата : Да
Параметр ReFrames формата : 11 кадров
Идентификатор кодека : V_MPEG4/ISO/AVC
Продолжительность : 1 ч. 29 м.
Битрейт : 1947 Кбит/сек
Ширина : 720 пикселей
Высота : 576 пикселей
Соотношение сторон : 16:9
Режим частоты кадров : Постоянный
Частота кадров : 25,000 кадров/сек
Стандарт вещания : PAL
Цветовое пространство : YUV
Субдискретизация насыщенности : 4:2:0
Битовая глубина : 8 бит
Тип развёртки : Прогрессивная
Бит/(Пиксели*Кадры) : 0.188
Размер потока : 1,18 Гбайт (82%)
Библиотека кодирования : x264 core 119 r2106 07efeb4
Настройки программы : cabac=1 / ref=11 / deblock=1:-2:-1 / analyse=0x3:0x113 / me=umh / subme=9 / psy=1 / psy_rd=1.00:0.20 / mixed_ref=1 / me_range=32 / chroma_me=1 / trellis=1 / 8x8dct=1 / cqm=0 / deadzone=21,11 / fast_pskip=0 / chroma_qp_offset=-3 / threads=9 / sliced_threads=0 / nr=0 / decimate=0 / interlaced=0 / bluray_compat=0 / constrained_intra=0 / bframes=8 / b_pyramid=2 / b_adapt=2 / b_bias=0 / direct=3 / weightb=1 / open_gop=0 / weightp=2 / keyint=250 / keyint_min=25 / scenecut=40 / intra_refresh=0 / rc_lookahead=60 / rc=2pass / mbtree=1 / bitrate=1947 / ratetol=1.0 / qcomp=0.60 / qpmin=0 / qpmax=69 / qpstep=4 / cplxblur=20.0 / qblur=0.5 / ip_ratio=1.40 / aq=1:1.00
Default : Да
Forced : Нет
Аудио
Идентификатор : 2
Формат : AC-3
Формат/Информация : Audio Coding 3
Расширение режима : CM (complete main)
Параметр Endianness формата : Big
Идентификатор кодека : A_AC3
Продолжительность : 1 ч. 29 м.
Вид битрейта : Постоянный
Битрейт : 384 Кбит/сек
Каналы : 6 каналов
Расположение каналов : Front: L C R, Side: L R, LFE
Частота : 48,0 КГц
Битовая глубина : 16 бит
Метод сжатия : С потерями
Размер потока : 245 Мбайт (16%)
Default : Да
Forced : Нет

Скриншоты




Создавать темы 05-Май-2013 00:55

[Профиль]  [ЛС] 

a(R)chi

Стаж: 4 года 11 месяцев

Сообщений: 309

Симпатии: 12

наконецта Лицензия как долго я ее ждал

_________________
Подпись отключена за нарушение правил форума

Создавать темы 05-Май-2013 01:37

[Профиль]  [ЛС] 

Топик был перенесен из форума Фильмы за 2013 (новинки) в форум HD-AVC

mp1988

Создавать темы 05-Май-2013 10:03

 

Lirik_Lindow

Стаж: 5 лет 3 месяца

Сообщений: 49

Симпатии: 1

Отличная комедия)) качайте.. я в раздаче стою..

Создавать темы 05-Май-2013 10:40

[Профиль]  [ЛС] 

den11111

Стаж: 4 года 9 месяцев

Сообщений: 58

Симпатии: 2

люди у каго нибудь от курашбамбея есть перевод

Создавать темы 05-Май-2013 11:51

[Профиль]  [ЛС] 

LiX

Стаж: 6 лет 6 месяцев

Сообщений: 254

Симпатии: 6

Просто очуууууууменный фильм! Очень понравился, тут до фига смешных моментов порой даже ржачных) Спасибо что залил atgerkin! Давно так не смеялся. Всем советую вы не пожалеете! Только смотрите без родителей)))

Создавать темы 06-Май-2013 10:39

[Профиль]  [ЛС] 

Deftones

Стаж: 5 лет 9 месяцев

Сообщений: 11

Фильм зачётный ) Концовка прикольная.

Создавать темы 09-Май-2013 00:47

[Профиль]  [ЛС] 

a(R)chi

Стаж: 4 года 11 месяцев

Сообщений: 309

Симпатии: 12

круто ващееее cooll

_________________
Подпись отключена за нарушение правил форума

Создавать темы 11-Май-2013 01:09

[Профиль]  [ЛС] 
Показать сообщения:    
Ответить на тему

Текущее время: 18-Дек 12:15

Часовой пояс: UTC + 5



Вы не можете начинать темы
Вы не можете отвечать на сообщения
Вы не можете редактировать свои сообщения
Вы не можете удалять свои сообщения
Вы не можете голосовать в опросах
Вы не можете прикреплять файлы к сообщениям
Вы не можете скачивать файлы