Любовь с первого вздоха (Ольга Ланд) [2013 г., комедия, SATRip]

Ответить на тему
 

Sunnat1999 ®

Стаж: 4 года 7 месяцев

Сообщений: 756

Симпатии: 416

Любовь с первого вздоха-- Год выпуска: 2013
Жанр: комедия
Продолжительность: 01:37:34-Режиссер: Ольга Ланд-В ролях: Анна Антонова, Ярослав Воронцов, Татьяна Колганова, Андрей Мокеев, Игорь Гордин, Зоя Буряк, Рина Гришина-Описание: Марина молодая аспирантка, готовясь к защите диссертации по новому типу дыхательной смеси для аквалангистов, делает ошибку в расчетах, в результате её смесь дает «любовный эффект». Проверяя состав своей смеси на себе, она «влюбляется» в своего научного руководителя Котова, который давно мечтал затащить в постель молоденькую аспирантку. Но пригубив вместе с Мариной коньяка на брудершафт, он получает пощечину. Алкоголь блокирует действие смеси. Вместе с Мариной в университете трудится кандидат наук Серов, у него большие неприятности из-за завкафедрой Глебовой. Марина предлагает Серову сделку: она помогает «влюбить» в него Глебову, а он должен помочь с защитой диссертации. Пройдя через различные коллизии Марина и Серов понимают, что любят друг друга и это настоящая химия любви-Доп. информация:
Премьера (РФ) 4 мая 2013
-Качество: SATRip
Формат: AVI
Видео кодек: XviD
Аудио кодек: AC3
Видео: XviD, 1750 Кбит/с, 720x400
Аудио: АС3, 2 ch, 128 Кбит/с

MI

Общее
Полное имя : Ljubov.s.pervogo.vzdoha.2013.Xvid.SATRip.avi
Формат : AVI
Формат/Информация : Audio Video Interleave
Размер файла : 1,29 Гбайт
Продолжительность : 1 ч. 37 м.
Общий поток : 1887 Кбит/сек
Режиссёр : Rip by Thunder
Программа кодирования : VirtualDubMod 1.5.10.3 | www.virtualdub-fr.org || (build 2550/release)
Видео
Идентификатор : 0
Формат : MPEG-4 Visual
Профиль формата : Advanced [email protected]
Параметр BVOP формата : 2
Параметр QPel формата : Нет
Параметр GMC формата : Без точки перехода
Параметр матрицы формата : Default (H.263)
Идентификатор кодека : XVID
Идентификатор кодека/Подсказка : XviD
Продолжительность : 1 ч. 37 м.
Битрейт : 1749 Кбит/сек
Ширина : 720 пикселей
Высота : 400 пикселей
Соотношение сторон : 16:9
Частота кадров : 25,000 кадров/сек
Цветовое пространство : YUV
Субдискретизация насыщенности : 4:2:0
Битовая глубина : 8 бит
Тип развёртки : Прогрессивная
Метод сжатия : С потерями
Бит/(Пиксели*Кадры) : 0.243
Размер потока : 1,19 Гбайт (93%)
Библиотека кодирования : XviD 1.2.1 (UTC 2008-12-04)
Аудио
Идентификатор : 1
Формат : AC-3
Формат/Информация : Audio Coding 3
Расширение режима : CM (complete main)
Параметр Endianness формата : Big
Идентификатор кодека : 2000
Продолжительность : 1 ч. 37 м.
Вид битрейта : Постоянный
Битрейт : 128 Кбит/сек
Каналы : 2 канала
Расположение каналов : Front: L R
Частота : 48,0 КГц
Битовая глубина : 16 бит
Метод сжатия : С потерями
Размер потока : 89,3 Мбайт (7%)
Выравнивание : Разделение по промежуткам
Продолжительность промежутка : 40 мс. (1,00 видеокадр)
Время предзагрузки промежутка : 500 мс.

Скриншоты




Создавать темы 06-Май-2013 14:47

[Профиль]  [ЛС] 
Показать сообщения:    
Ответить на тему

Текущее время: 27-Сен 01:42

Часовой пояс: UTC + 5



Вы не можете начинать темы
Вы не можете отвечать на сообщения
Вы не можете редактировать свои сообщения
Вы не можете удалять свои сообщения
Вы не можете голосовать в опросах
Вы не можете прикреплять файлы к сообщениям
Вы не можете скачивать файлы