Madagascar 3: Europe's Most Wanted (Эрик Дарнелл, Том МакГрат, Конрад Вернон) [2012 г., мультфильм, комедия, приключения, семейный., BDRip 1080p]

Ответить на тему
 

rsanjar ®

Стаж: 6 лет 6 месяцев

Сообщений: 32

Симпатии: 3

Мадагаскар 3 / Madagascar 3: Europe's Most Wanted
Год выпуска: 2012
Страна: США
Жанр: мультфильм, комедия, приключения, семейный.
Продолжительность: 93 мин. / 01:33
Перевод: Профессиональный (полное дублирование)
Режиссер: Эрик Дарнелл, Том МакГрат, Конрад Вернон
В ролях: Бен Стиллер
Крис Рок
Дэвид Швиммер
Джада Пинкетт Смит
Саша Барон Коэн
Седрик «Развлекатель»
Энди Рихтер
Том МакГрат
Фрэнсис МакДорманд
Джессика Честейн
Роли дублировали:
Константин Хабенский
Оскар Кучера
Александр Цекало
Маша Малиновская
Андрей Лёвин
Описание: Лев Алекс, зебра Марти, гиппопотамиха Глория и жираф Мелман, а также король Джулиан, Морис, Морт и Пингвины все еще пытаются вернуться в Нью-Йорк. На этот раз их путь пройдет через Европу, где они откроют свой цирк.
Качество: BDRip 1080p
Формат: MKV
Видео кодек: Другой MPEG4
Аудио кодек: AC3
Видео: MPEG4 Video (H264) 1920x1080 23.98fps
Аудио: Dolby AC3 48000Hz 6ch

Скриншоты



mediainfo

General
Complete name :Madagascar.3.Europe's.Most.Wanted.2012.1080р.BluRay.Rus.Eng.HDCLUB.mkv
Format : Matroska
File size : 8.90 GiB
Duration : 1h 33mn
Overall bit rate : 13.6 Mbps
Movie name : Madagascar 3: Europe's Most Wanted (2012) - Release for HDCLUB by doclogan
Encoded date : UTC 2012-10-12 06:20:23
Writing application : mkvmerge v5.7.0 ('The Whirlwind') built on Jul 8 2012 20:08:51
Writing library : libebml v1.2.3 + libmatroska v1.3.0
Video
ID : 1
Format : AVC
Format/Info : Advanced Video Codec
Format profile : [email protected]
Format settings, CABAC : Yes
Format settings, ReFrames : 4 frames
Muxing mode : Container [email protected]
Codec ID : V_MPEG4/ISO/AVC
Duration : 1h 33mn
Bit rate : 11.2 Mbps
Nominal bit rate : 11.5 Mbps
Width : 1 920 pixels
Height : 1 080 pixels
Display aspect ratio : 16:9
Frame rate : 23.976 fps
Resolution : 24 bits
Colorimetry : 4:2:0
Scan type : Progressive
Bits/(Pixel*Frame) : 0.226
Stream size : 7.32 GiB (82%)
Title : Release for HDCLUB by doclogan
Writing library : x264 core 125 r2208 d9d2288
Encoding settings : cabac=1 / ref=4 / deblock=1:-3:-3 / analyse=0x3:0x113 / me=umh / subme=10 / psy=1 / psy_rd=1.05:0.10 / mixed_ref=1 / me_range=48 / chroma_me=1 / trellis=2 / 8x8dct=1 / cqm=0 / deadzone=21,11 / fast_pskip=0 / chroma_qp_offset=-2 / threads=12 / lookahead_threads=2 / sliced_threads=0 / nr=0 / decimate=1 / interlaced=0 / bluray_compat=0 / constrained_intra=0 / bframes=6 / b_pyramid=2 / b_adapt=2 / b_bias=0 / direct=3 / weightb=1 / open_gop=0 / weightp=2 / keyint=250 / keyint_min=23 / scenecut=40 / intra_refresh=0 / rc_lookahead=40 / rc=2pass / mbtree=0 / bitrate=11507 / ratetol=2.0 / qcomp=0.70 / qpmin=0 / qpmax=69 / qpstep=4 / cplxblur=20.0 / qblur=0.5 / vbv_maxrate=40000 / vbv_bufsize=30000 / nal_hrd=none / ip_ratio=1.40 / pb_ratio=1.30 / aq=2:1.00
Audio #1
ID : 2
Format : AC-3
Format/Info : Audio Coding 3
Codec ID : A_AC3
Duration : 1h 33mn
Bit rate mode : Constant
Bit rate : 640 Kbps
Channel(s) : 6 channels
Channel positions : Front: L C R, Surround: L R, LFE
Sampling rate : 48.0 KHz
Stream size : 428 MiB (5%)
Title : DD 5.1 @ 640 kbps – Дубляж (Blu-ray)
Language : Russian
Audio #2
ID : 3
Format : AC-3
Format/Info : Audio Coding 3
Codec ID : A_AC3
Duration : 1h 33mn
Bit rate mode : Constant
Bit rate : 640 Kbps
Channel(s) : 6 channels
Channel positions : Front: L C R, Surround: L R, LFE
Sampling rate : 48.0 KHz
Stream size : 428 MiB (5%)
Title : DD 5.1 @ 640 kbps – Дубляж (Blu-ray)
Language : Ukrainian
Audio #3
ID : 4
Format : AC-3
Format/Info : Audio Coding 3
Codec ID : A_AC3
Duration : 1h 33mn
Bit rate mode : Constant
Bit rate : 640 Kbps
Channel(s) : 6 channels
Channel positions : Front: L C R, Surround: L R, LFE
Sampling rate : 48.0 KHz
Stream size : 428 MiB (5%)
Title : DD 5.1 @ 640 kbps
Audio #4
ID : 5
Format : AC-3
Format/Info : Audio Coding 3
Codec ID : A_AC3
Duration : 1h 33mn
Bit rate mode : Constant
Bit rate : 224 Kbps
Channel(s) : 2 channels
Channel positions : L R
Sampling rate : 48.0 KHz
Stream size : 150 MiB (2%)
Title : Commentary
Text #1
ID : 6
Format : UTF-8
Codec ID : S_TEXT/UTF8
Codec ID/Info : UTF-8 Plain Text
Title : forced
Language : Russian
Text #2
ID : 7
Format : UTF-8
Codec ID : S_TEXT/UTF8
Codec ID/Info : UTF-8 Plain Text
Title : Blu-ray
Language : Russian
Text #3
ID : 8
Format : UTF-8
Codec ID : S_TEXT/UTF8
Codec ID/Info : UTF-8 Plain Text
Title : forced
Language : Ukrainian
Text #4
ID : 9
Format : UTF-8
Codec ID : S_TEXT/UTF8
Codec ID/Info : UTF-8 Plain Text
Title : Blu-ray
Language : Ukrainian
Text #5
ID : 10
Format : UTF-8
Codec ID : S_TEXT/UTF8
Codec ID/Info : UTF-8 Plain Text
Menu
00:00:00.000 : en:00:00:00.000
00:05:16.316 : en:00:05:16.316
00:10:51.985 : en:00:10:51.985
00:19:46.310 : en:00:19:46.310
00:27:49.835 : en:00:27:49.835
00:32:50.552 : en:00:32:50.552
00:40:34.974 : en:00:40:34.974
00:46:51.976 : en:00:46:51.976
00:52:00.534 : en:00:52:00.534
00:58:55.157 : en:00:58:55.157
01:00:23.411 : en:01:00:23.411
01:04:19.314 : en:01:04:19.314
01:10:59.672 : en:01:10:59.672
01:15:30.317 : en:01:15:30.317
01:21:09.782 : en:01:21:09.782
01:22:48.630 : en:01:22:48.630


Последний раз редактировалось: rsanjar (2013-05-09 15:01), всего редактировалось 2 раз(а)

Создавать темы 07-Май-2013 01:47

[Профиль]  [ЛС] 

Zab

Стаж: 6 лет 3 месяца

Сообщений: 476

Симпатии: 424

Супер релиз! Держи + и спасибо!! )

Создавать темы 07-Май-2013 03:19

[Профиль]  [ЛС] 

Mixer City

Стаж: 6 лет 7 месяцев

Сообщений: 754

Симпатии: 63

rsanjar, добавь битрейт видео и аудио или добавь media Info.

Создавать темы 08-Май-2013 15:38

[Профиль]  [ЛС] 

rsanjar ®

Стаж: 6 лет 6 месяцев

Сообщений: 32

Симпатии: 3

Исправил.

Создавать темы 08-Май-2013 18:15

[Профиль]  [ЛС] 

Топик был перенесен из форума HD-AVC в форум Мультфильмы

Mixer City

Создавать темы 09-Май-2013 14:48

 
Показать сообщения:    
Ответить на тему

Текущее время: 18-Авг 17:36

Часовой пояс: UTC + 5



Вы не можете начинать темы
Вы не можете отвечать на сообщения
Вы не можете редактировать свои сообщения
Вы не можете удалять свои сообщения
Вы не можете голосовать в опросах
Вы не можете прикреплять файлы к сообщениям
Вы не можете скачивать файлы