Сексуальная детка / Sexy Baby (Jill Bauer / Джилл Бауэр, Ronna Gradus / Ронна Градус) [2012, Документальный, HDTVRip 720p]

Страницы :  1, 2  След.

Ответить на тему
 

Suxrob89 ®

Стаж: 7 лет

Сообщений: 933

Симпатии: 564

-Сексуальная детка / Sexy Baby- Год выпуска: 2012
Страна: США
Жанр: Документальный
Продолжительность: 01:22:43
Перевод: Субтитры
Русские субтитры: есть-Режиссер: Джилл Бауэр, Ронна Градус-Описание: Документальный фильм, посвященный проблеме влиянии интернета и социальных сетей на сексуализацию современных детей.-Качество: HDTVRip 720p
Формат: MKV
Видео кодек: AVC
Аудио кодек: AC3
Видео: MPEG4-AVC (H264), 1280x714, 29.97fps, 4397 kbps
Аудио: English, AC3, DD 2.0, 48000 Hz, 384 kbps
Формат субтитров: softsub (SRT)- -Доп. информация: Если вместо субтитров у вас отображаются кракозябры - поменяйте кодировку на UTF-8.-

Скриншот c названием фильма

Скриншоты

Mediainfo

General
Unique ID : 182422909385815410525905102720785069661 (0x893D5FD6E5F840B8BB05C43398F6365D)
Complete name : G:\VIDEO\OTHER\Documentary\Sexy Baby (2012)\Sexy.Baby.2012.720p.HDTV.DD5.1.x264-EbP.mkv
Format : Matroska
Format version : Version 2
File size : 2.82 GiB
Duration : 1h 22mn
Overall bit rate : 4 878 Kbps
Encoded date : UTC 2012-12-26 04:21:06
Writing application : mkvmerge v5.8.0 ('No Sleep / Pillow') built on Sep 2 2012 15:37:04
Writing library : libebml v1.2.3 + libmatroska v1.3.0
Video
ID : 1
Format : AVC
Format/Info : Advanced Video Codec
Format profile : [email protected]
Format settings, CABAC : Yes
Format settings, ReFrames : 9 frames
Codec ID : V_MPEG4/ISO/AVC
Duration : 1h 22mn
Bit rate : 4 397 Kbps
Width : 1 280 pixels
Height : 714 pixels
Display aspect ratio : 16:9
Frame rate mode : Constant
Frame rate : 29.970 fps
Color space : YUV
Chroma subsampling : 4:2:0
Bit depth : 8 bits
Scan type : Progressive
Bits/(Pixel*Frame) : 0.161
Stream size : 2.54 GiB (90%)
Writing library : x264 core 128 r2216 198a7ea
Encoding settings : cabac=1 / ref=9 / deblock=1:-3:-3 / analyse=0x3:0x133 / subme=11 / psy=1 / psy_rd=1.10:0.00 / mixed_ref=1 / me_range=32 / chroma_me=1 / trellis=2 / 8x8dct=1 / cqm=0 / deadzone=21,11 / fast_pskip=0 / chroma_qp_offset=-2 / threads=6 / lookahead_threads=1 / sliced_threads=0 / nr=0 / decimate=0 / interlaced=0 / bluray_compat=0 / constrained_intra=0 / bframes=6 / b_pyramid=2 / b_adapt=2 / b_bias=0 / direct=3 / weightb=1 / open_gop=0 / weightp=2 / keyint=250 / keyint_min=25 / scenecut=40 / intra_refresh=0 / rc_lookahead=60 / rc=crf / mbtree=1 / crf=17.0 / qcomp=0.60 / qpmin=0 / qpmax=69 / qpstep=4 / ip_ratio=1.40 / aq=1:0.85
Language : English
Default : Yes
Forced : No
Audio
ID : 2
Format : AC-3
Format/Info : Audio Coding 3
Mode extension : CM (complete main)
Format settings, Endianness : Big
Codec ID : A_AC3
Duration : 1h 22mn
Bit rate mode : Constant
Bit rate : 384 Kbps
Channel(s) : 2 channels
Channel positions : Front: L R
Sampling rate : 48.0 KHz
Bit depth : 16 bits
Compression mode : Lossy
Delay relative to video : 32ms
Stream size : 227 MiB (8%)
Default : Yes
Forced : No

Создавать темы 07-Май-2013 07:11

[Профиль]  [ЛС] 

The_war_

Стаж: 5 лет 6 месяцев

Сообщений: 39

Симпатии: 2

2 скриншот убрал бы .

Создавать темы 07-Май-2013 08:06

[Профиль]  [ЛС] 

retynn

Стаж: 6 лет 4 месяца

Сообщений: 15

как включить субтитры

Создавать темы 07-Май-2013 18:35

[Профиль]  [ЛС] 

bokal_solutions

Стаж: 6 лет 7 месяцев

Сообщений: 69

Симпатии: 5

Media Player Classic
Открываете файл, правой кнопкой на области просмотра ---- Навигация --- Субтитры ---Включить

Создавать темы 07-Май-2013 21:07

[Профиль]  [ЛС] 

retynn

Стаж: 6 лет 4 месяца

Сообщений: 15

Media Player Classic
Открываете файл, правой кнопкой на области просмотра ---- Навигация --- Субтитры ---Включить
я так сделал но субтитров нет

Создавать темы 07-Май-2013 21:57

[Профиль]  [ЛС] 

Александр Гузов

Стаж: 4 года 7 месяцев

Сообщений: 112

Симпатии: 6

вашпе субтитры не катят? проигрыватель MPC, а толку нет(

Создавать темы 11-Май-2013 16:23

[Профиль]  [ЛС] 

tempo

Стаж: 4 года 10 месяцев

Сообщений: 51

У меня открыл субтитры проигрыватель KMPLayer 3,6

Создавать темы 12-Май-2013 15:22

[Профиль]  [ЛС] 

tempo

Стаж: 4 года 10 месяцев

Сообщений: 51

после просмотра фильма, начинаешь думать, что всё таки, нужно как то контролировать это пагубное влияние порнографии в интернете и в СМИ на подростков.

Создавать темы 12-Май-2013 17:08

[Профиль]  [ЛС] 

insomniator

Стаж: 5 лет 7 месяцев

Сообщений: 48

после просмотра фильма, начинаешь думать, что всё таки, нужно как то контролировать это пагубное влияние порнографии в интернете и в СМИ на подростков.
в чем пагубность ?

Создавать темы 17-Май-2013 17:29

[Профиль]  [ЛС] 

Nirvana

Стаж: 5 лет 10 месяцев

Сообщений: 26

Симпатии: 4

insomniator, в том, что людям не нужны потом другие люди.

Создавать темы 17-Май-2013 17:56

[Профиль]  [ЛС] 

insomniator

Стаж: 5 лет 7 месяцев

Сообщений: 48

insomniator, в том, что людям не нужны потом другие люди.
плиз объясни попроще для прапорщиков свою мысль

Создавать темы 17-Май-2013 17:59

[Профиль]  [ЛС] 

Nirvana

Стаж: 5 лет 10 месяцев

Сообщений: 26

Симпатии: 4

insomniator, зачем нужны настоящие люди с их капризами и проблемами, когда есть виртуальные, да и притом в таком больше ассортименте.

Создавать темы 17-Май-2013 18:01

[Профиль]  [ЛС] 

david

Стаж: 7 лет 2 месяца

Сообщений: 467

Симпатии: 12

insomniator, зачем нужны настоящие люди с их капризами и проблемами, когда есть виртуальные, да и притом в таком больше ассортименте.
ммм а если мне и вправду не нужны 6,5млрд человек на планете,то это плохо ?(((((
в виртуальности мы получим человека с еще большими капризами и проблемами.
Так что еще не факт,что пагубнее -- устаревшая морализация или новизм )

Создавать темы 17-Май-2013 18:59

[Профиль]  [ЛС] 

ilgor_95

Стаж: 4 года 1 месяц

Сообщений: 1

dayte skorosti pleas

Создавать темы 09-Июл-2013 21:03

[Профиль]  [ЛС] 

shad12

Стаж: 5 лет 7 месяцев

Сообщений: 107

Симпатии: 13

раздайте бедному узонлайновцу

Создавать темы 07-Авг-2013 14:00

[Профиль]  [ЛС] 
Показать сообщения:    
Ответить на тему

Текущее время: 24-Авг 02:31

Часовой пояс: UTC + 5



Вы не можете начинать темы
Вы не можете отвечать на сообщения
Вы не можете редактировать свои сообщения
Вы не можете удалять свои сообщения
Вы не можете голосовать в опросах
Вы не можете прикреплять файлы к сообщениям
Вы не можете скачивать файлы