Темный поток / Dark Feed (Майкл Расмуссен, Шон Расмуссен) [2013 г., ужасы, WEB-DLRip]

Ответить на тему
 

igor1968 ®

Стаж: 5 лет 6 месяцев

Сообщений: 366

Симпатии: 197

Темный поток / Dark Feed (Майкл Расмуссен, Шон Расмуссен) [2013 г., ужасы, WEB-DLRip]
Год выпуска:18марта 2013 г.
Страна:
Жанр: ужасы
Продолжительность: 01:25:57.741
Перевод: Любительский (одноголосый) [den904]

Режиссер: Майкл Расмуссен, Шон Расмуссен
В ролях: В главных ролях:
Энди Рудик
Тори Наджент
Майкл Скотт Аллен
Алексей Акоста
Джессика Лорен Напье
Курт Кламп
Эвалена Мари
Ребекка Уитехёрст
Дэйна Казинс
Ивэн Сэндерсон
...

:Съемочная группа отправляется в заброшенную психиатрическую больницу с темным прошлым, чтобы снять низкобюджетный фильм ужасов. Они и не подозревали, насколько дорого в итоге им придётся заплатить…

MediaInfo

Доп. информация: General
Complete name : D:\Dark.Feed.2013.WEB-DLRip.avi
Format : AVI
Format/Info : Audio Video Interleave
File size : 1.46 GiB
Duration : 1h 25mn
Overall bit rate : 2 433 Kbps
Writing application : VirtualDubMod 1.5.10.3 | www.virtualdub-fr.org || (build 2550/release)
Writing library : VirtualDubMod build 2550/release
Video
ID : 0
Format : MPEG-4 Visual
Format profile : Advanced [email protected]
Format settings, BVOP : 2
Format settings, QPel : No
Format settings, GMC : No warppoints
Format settings, Matrix : Default (MPEG)
Codec ID : XVID
Codec ID/Hint : XviD
Duration : 1h 25mn
Bit rate : 1 976 Kbps
Width : 720 pixels
Height : 400 pixels
Display aspect ratio : 16:9
Frame rate : 23.976 fps
Color space : YUV
Chroma subsampling : 4:2:0
Bit depth : 8 bits
Scan type : Progressive
Compression mode : Lossy
Bits/(Pixel*Frame) : 0.286
Stream size : 1.19 GiB (81%)
Writing library : XviD 1.2.1 (UTC 2008-12-04)
Audio
ID : 1
Format : AC-3
Format/Info : Audio Coding 3
Mode extension : CM (complete main)
Format settings, Endianness : Big
Codec ID : 2000
Duration : 1h 25mn
Bit rate mode : Constant
Bit rate : 448 Kbps
Channel(s) : 6 channels
Channel positions : Front: L C R, Side: L R, LFE
Sampling rate : 48.0 KHz
Bit depth : 16 bits
Compression mode : Lossy
Stream size : 275 MiB (18%)
Alignment : Split accross interleaves
Interleave, duration : 42 ms (1.00 video frame)
Interleave, preload duration : 500 ms

Качество:WEB-DLRip
Формат: AVI
Видео кодек: XviD
Аудио кодек: AC3
Видео: Xvid 720x400 23.976fps [Stream 00]
Аудио: Dolby AC3 48000Hz 6ch 448kbps [Stream 01]

Скриншоты




Просмотр качества видео и звука:
http://mover.uz/watch/V3yAWhGj/
http://mytube.uz/ru/tracks/221808.htm


Последний раз редактировалось: igor1968 (2013-05-12 16:26), всего редактировалось 4 раз(а)

Создавать темы 07-Май-2013 15:56

[Профиль]  [ЛС] 

master.cs

Стаж: 4 года 4 месяца

Сообщений: 4

Готов

Создавать темы 07-Май-2013 18:47

[Профиль]  [ЛС] 

igor1968 ®

Стаж: 5 лет 6 месяцев

Сообщений: 366

Симпатии: 197

С 08.05.2013-11.05.2013 возможны перебои с интернетом (переход с ARS на Uzonline) приношу извинение за не удобства.

Создавать темы 08-Май-2013 13:59

[Профиль]  [ЛС] 

Butty

Стаж: 5 лет

Сообщений: 96

Симпатии: 6

(переход с ARS на Uzonline)
да уж мучатся будеет ))

Создавать темы 09-Май-2013 13:12

[Профиль]  [ЛС] 

Javohir96

Стаж: 5 лет 7 месяцев

Сообщений: 40

Симпатии: 1

(переход с ARS на Uzonline)
да уж мучатся будеет ))
точнее после 11.05.13 будут перебои с инетом:)

Создавать темы 09-Май-2013 20:35

[Профиль]  [ЛС] 

Guliomjon

Стаж: 5 лет 3 месяца

Сообщений: 3

скорст

Создавать темы 13-Май-2013 13:20

[Профиль]  [ЛС] 
Показать сообщения:    
Ответить на тему

Текущее время: 23-Сен 01:51

Часовой пояс: UTC + 5



Вы не можете начинать темы
Вы не можете отвечать на сообщения
Вы не можете редактировать свои сообщения
Вы не можете удалять свои сообщения
Вы не можете голосовать в опросах
Вы не можете прикреплять файлы к сообщениям
Вы не можете скачивать файлы