Охотники на ведьм / Hansel & Gretel: Witch Hunters (Томми Виркола) [2013, США, Германия, Ужасы, Фэнтези, Боевик, DVDRip] Dub (Чистый звук) + Original Eng

Страницы :  1, 2, 3  След.

Тема закрыта
 

Suxrob89 ®

Стаж: 7 лет 1 месяц

Сообщений: 933

Симпатии: 564

-Охотники на ведьм / Hansel & Gretel: Witch Hunters-«Новый поворот старой истории»- Страна: США, Германия
Жанр: Ужасы, Фэнтези, Боевик
Год выпуска: 2013
Продолжительность: 01:27:58
Перевод: Профессиональный (дублированный) [Чистый звук]
Cубтитры: нет
Оригинальная аудиодорожка: английский-Режиссер: Томми Виркола-В ролях: Джереми Реннер, Джемма Артертон, Фамке Янссен, Зои Белл, Петер Стормаре, Томас Манн, Ингрид Болсай Бердал, Робин Аткин Даунс, Дерек Мирс, Моник Гэндертон-Описание: Едва не погибнув в лапах ужасной ведьмы, Гензель и Гретель стали только сильнее. Одержимые местью, они ведут отчаянную борьбу со злом, даже не подозревая, что их поджидает нечто куда более опасное… собственное прошлое…- -Качество видео: DVDRip
Формат видео: AVI
Видео: 720x304 (2.37:1), 23.976 fps, XviD build 46 ~1507 kbps avg, 0.29 bit/pixel
Аудио: 32 kHz, MPEG Layer 3, 2 ch, ~256.00 kbps avg [Русский]
Аудио 2: 48 kHz, AC3 Dolby Digital, 3/2 (L,C,R,l,r) + LFE ch, ~448 kbps [Английский]

MediaInfo

Формат : AVI
Формат/Информация : Audio Video Interleave
Размер файла : 1,37 Гбайт
Продолжительность : 1 ч. 27 м.
Общий поток : 2226 Кбит/сек
Программа кодирования : VirtualDubMod 1.5.10.2 (build 2540/release)
Библиотека кодирования : VirtualDubMod build 2540/release
Видео
Идентификатор : 0
Формат : MPEG-4 Visual
Профиль формата : [email protected]
Параметр BVOP формата : Нет
Параметр QPel формата : Нет
Параметр GMC формата : Без точки перехода
Параметр матрицы формата : Default (H.263)
Идентификатор кодека : XVID
Идентификатор кодека/Подсказка : XviD
Продолжительность : 1 ч. 27 м.
Битрейт : 1423 Кбит/сек
Ширина : 720 пикселей
Высота : 304 пикселя
Соотношение сторон : 2,35:1
Частота кадров : 23,976 кадра/сек
Цветовое пространство : YUV
Субдискретизация насыщенности : 4:2:0
Битовая глубина : 8 бит
Тип развёртки : Прогрессивная
Метод сжатия : С потерями
Бит/(Пиксели*Кадры) : 0.271
Размер потока : 895 Мбайт (64%)
Библиотека кодирования : XviD 1.1.2 (UTC 2006-11-01)
Аудио #1
Идентификатор : 1
Формат : MPEG Audio
Версия формата : Version 1
Профиль формата : Layer 3
Режим : Joint stereo
Расширение режима : MS Stereo
Идентификатор кодека : 55
Идентификатор кодека/Подсказка : MP3
Продолжительность : 1 ч. 27 м.
Вид битрейта : Постоянный
Битрейт : 256 Кбит/сек
Каналы : 2 канала
Частота : 32,0 КГц
Метод сжатия : С потерями
Размер потока : 161 Мбайт (11%)
Выравнивание : Соединение по промежуткам
Библиотека кодирования : LAME3.99.5
Аудио #2
Идентификатор : 2
Формат : AC-3
Формат/Информация : Audio Coding 3
Расширение режима : CM (complete main)
Параметр Endianness формата : Big
Идентификатор кодека : 2000
Продолжительность : 1 ч. 27 м.
Вид битрейта : Постоянный
Битрейт : 448 Кбит/сек
Каналы : 6 каналов
Расположение каналов : Front: L C R, Side: L R, LFE
Частота : 48,0 КГц
Битовая глубина : 16 бит
Метод сжатия : С потерями
Размер потока : 282 Мбайт (20%)
Выравнивание : Разделение по промежуткам

Скриншоты



Последний раз редактировалось: Suxrob89 (2013-05-07 23:19), всего редактировалось 1 раз

Создавать темы 07-Май-2013 22:57

[Профиль]  [ЛС] 

Иннур

Стаж: 4 года 11 месяцев

Сообщений: 40

И золото дайте!

Создавать темы 07-Май-2013 23:19

[Профиль]  [ЛС] 

RedBull

Стаж: 6 лет 5 месяцев

Сообщений: 185

Симпатии: 4

чуть чуть может скорости добавьте !!!
нормальная скорость 90-100 это лучше чем 40-50

Создавать темы 08-Май-2013 10:44

[Профиль]  [ЛС] 

DooM

Стаж: 5 лет 11 месяцев

Сообщений: 809

Симпатии: 30

Народ у меня у одного звук идёт впереди самого видео? Оказывается тока когда через media Player Classic смотришь такая фигня.

Создавать темы 08-Май-2013 19:39

[Профиль]  [ЛС] 

said2

Стаж: 4 года 4 месяца

Сообщений: 7

где же играла эта сучка

Создавать темы 08-Май-2013 20:12

[Профиль]  [ЛС] 

said2

Стаж: 4 года 4 месяца

Сообщений: 7

а чё фашисты принимали участие в создании этого фильма потому что сказка фрицов?

Создавать темы 08-Май-2013 20:13

[Профиль]  [ЛС] 

irinadj

Стаж: 6 лет 4 месяца

Сообщений: 3

принц персии принцесса вот где она играла

Создавать темы 08-Май-2013 22:09

[Профиль]  [ЛС] 

for1nt

Стаж: 5 лет 1 месяц

Сообщений: 23

Симпатии: 3

главное скачали и все свалили с раздачи!!!

Создавать темы 09-Май-2013 10:59

[Профиль]  [ЛС] 

axeman

Стаж: 4 года 10 месяцев

Сообщений: 380

Симпатии: 50

что то у меня Звук с CamRip

Создавать темы 09-Май-2013 11:43

[Профиль]  [ЛС] 

eldor_84

Стаж: 5 лет 1 месяц

Сообщений: 29

Симпатии: 1

чет файл битый, озвучка при влючении фильма в kmplayer странная при переклюсении языков становиться нармальной, у всех так???

Создавать темы 09-Май-2013 14:13

[Профиль]  [ЛС] 

rimlin

Стаж: 4 года 7 месяцев

Сообщений: 8

Симпатии: 2

озвучка как-будто переводчик возле себя балон гелия поставил, дышал и озвучивал

Создавать темы 11-Май-2013 22:45

[Профиль]  [ЛС] 

for1nt

Стаж: 5 лет 1 месяц

Сообщений: 23

Симпатии: 3

ожидал большего от этого фильма. зрелищности маловато. спс. автору

Создавать темы 12-Май-2013 13:26

[Профиль]  [ЛС] 

Xakker_xxx

Стаж: 5 лет 5 месяцев

Сообщений: 53

Симпатии: 1

Скажите стоит качать или нет?

Создавать темы 13-Май-2013 10:58

[Профиль]  [ЛС] 

Mr_Itachi

Стаж: 4 года 6 месяцев

Сообщений: 9

Скорости

Создавать темы 13-Май-2013 12:39

[Профиль]  [ЛС] 

Колдун

Стаж: 5 лет 10 месяцев

Сообщений: 10

Симпатии: 1

Где русская дорожка у меня только ENg

Создавать темы 13-Май-2013 21:58

[Профиль]  [ЛС] 
Показать сообщения:    
Тема закрыта

Текущее время: 21-Сен 08:24

Часовой пояс: UTC + 5



Вы не можете начинать темы
Вы не можете отвечать на сообщения
Вы не можете редактировать свои сообщения
Вы не можете удалять свои сообщения
Вы не можете голосовать в опросах
Вы не можете прикреплять файлы к сообщениям
Вы не можете скачивать файлы