Мертвые тени / Dead Shadows (Давид Холева / David Cholewa) [2012, Франция, ужасы, HDRip] VO

Ответить на тему
 

Suxrob89 ®

Стаж: 7 лет 3 месяца

Сообщений: 933

Симпатии: 564

-Мертвые тени / Dead Shadows- Страна: Франция
Жанр: ужасы
Год выпуска: 2012
Продолжительность: 01:14:43
Перевод: Одноголосый закадровый (den904 ) Перевод: МЕГАПЫХАРЬ
Cубтитры: нет-Режиссер: Давид Холева / David Cholewa-В ролях: Жиль Бэррет, Марго Деви, Сильвен Дюбуа, Джон Фэллон, Норберт Феррер, Кристоф Перес,, Рурик Салле, Жоанна Серор-Описание: Одиннадцать лет назад - в тот день, когда с Земли можно было видеть пролетающую комету Хейли, были зверски убиты родители Криса. Сегодня годовщина этого ужасного события, а ночью на небе вновь появится комета, которую готовятся наблюдать его соседи. Однако, наступает ночь, и Крис замечает, что окружающие его люди ведут себя как-то странно - парень подозревает в этом связь с небесным явлением. Крис, с помощью нескольких соседей, пытается выбраться из дома, чтобы не стать жертвой остальных жильцов, превратившихся в каких-то потусторонних тварей...- -Качество видео: HDRip
Формат видео: AVI
Видео: 720x384 (1.88:1), 23.976 fps, XviD MPEG-4 ~1198 kbps avg, 0.18 bit/pixel
Аудио: 48 kHz, AC3 Dolby Digital, 2/0 (L,R) ch, ~192 kbps

MediaInfo

General
Complete name : K:\Работа\Dead.Shadows.avi
Format : AVI
Format/Info : Audio Video Interleave
File size : 748 MiB
Duration : 1h 14mn
Overall bit rate : 1 400 Kbps
Writing application : VirtualDubMod 1.5.10.2 (build 2540/release)
Writing library : VirtualDub build 32661/release
Video
ID : 0
Format : MPEG-4 Visual
Format profile : Advanced [email protected]
Format settings, BVOP : 2
Format settings, QPel : No
Format settings, GMC : No warppoints
Format settings, Matrix : Default (H.263)
Muxing mode : Packed bitstream
Codec ID : XVID
Codec ID/Hint : XviD
Duration : 1h 14mn
Bit rate : 1 199 Kbps
Width : 720 pixels
Height : 384 pixels
Display aspect ratio : 1.875
Frame rate : 23.976 fps
Color space : YUV
Chroma subsampling : 4:2:0
Bit depth : 8 bits
Scan type : Progressive
Compression mode : Lossy
Bits/(Pixel*Frame) : 0.181
Stream size : 641 MiB (86%)
Writing library : XviD 64
Audio
ID : 1
Format : AC-3
Format/Info : Audio Coding 3
Mode extension : CM (complete main)
Codec ID : 2000
Duration : 1h 14mn
Bit rate mode : Constant
Bit rate : 192 Kbps
Channel(s) : 2 channels
Channel positions : Front: L R
Sampling rate : 48.0 KHz
Bit depth : 16 bits
Compression mode : Lossy
Stream size : 103 MiB (14%)
Alignment : Aligned on interleaves
Interleave, duration : 42 ms (1.00 video frame)
Interleave, preload duration : 512 ms

Скриншот c названием фильма

Скриншоты

Создавать темы 10-Май-2013 07:13

[Профиль]  [ЛС] 

anna140987

Стаж: 4 года 10 месяцев

Сообщений: 97

Симпатии: 12

кто посмотрел - отпишитесь. тв3?

Создавать темы 14-Май-2013 00:47

[Профиль]  [ЛС] 

Xoyze

Стаж: 5 лет 9 месяцев

Сообщений: 69

Симпатии: 2

да походу не тв3.
Сам не смотрел, но думаю что не тв3

Создавать темы 20-Май-2013 19:58

[Профиль]  [ЛС] 
Показать сообщения:    
Ответить на тему

Текущее время: 21-Ноя 00:25

Часовой пояс: UTC + 5



Вы не можете начинать темы
Вы не можете отвечать на сообщения
Вы не можете редактировать свои сообщения
Вы не можете удалять свои сообщения
Вы не можете голосовать в опросах
Вы не можете прикреплять файлы к сообщениям
Вы не можете скачивать файлы