Ледниковый период 4: Континентальный дрейф / Ice Age: Continental Drift (Стив Мартино, Майк Тёрмайер) [2012 г., мультфильм, комедия, приключения, семейный., BDRip]

Ответить на тему
 

rsanjar ®

Стаж: 6 лет 6 месяцев

Сообщений: 32

Симпатии: 3

Ледниковый период 4: Континентальный дрейф / Ice Age: Continental Drift
Год выпуска: 2012
Страна: США
Жанр: мультфильм, комедия, приключения, семейный.
Продолжительность: 88 мин. / 01:28
Перевод: Профессиональный (полное дублирование)
Режиссер: Стив Мартино, Майк Тёрмайер
В ролях: Рэй Романо
Джон Легуизамо
Куин Латифа
Дэнис Лири
Джош Пек
Питер Динклэйдж
Кеке Палмер
Дженнифер Лопез
Ник Фрост
Азиз Ансари
Роли дублировали:
Степан Старчиков
Антон Комолов
Ольга Шелест
Александр Груздев
Илья Бледный
Формат 3D: Half OverUnder / Вертикальная анаморфная стереопара
Описание: После приключений под землей прошло семь лет. Случился дрейф континентов. Главные герои мультфильма, отделённые от стада, вынуждены использовать айсберг в качестве плота. Они пересекают океан и попадают в неизвестные им ранее земли с экзотическими животными и пиратами, враждебно настроенными к ним. Скрэту удаётся получить свой жёлудь, но он перемещается в новые для него земли.
Доп. информация: Главный злодей капитан Гатт — это гигантопитек (доисторический орангутанг).
Джереми Реннер должен был участвовать в мультфильме, но покинул проект из-за несогласованности расписаний съемок.
По слухам, первоначальная версия сюжета включала в себя Мэнни, Сида, Диего, Элли и Белку замерзших во льдах и случайно размороженных в музее в наши дни. Фильм предположительно должен был называться «Ice Age: Th4w».
Качество: BDRip
Формат: MKV
Видео кодек: Другой MPEG4
Аудио кодек: AC3
Видео: MPEG4 Video (H264) 1920x1080 23.98fps
Аудио: Dolby AC3 48000Hz 6ch

Скриншоты



Mediainfo

General
Complete name : D:\лучшие и 3D фильмы\3D MOVIES\IceAge.ContinentalDrift(3D)2012.halfOU.mkv
Format : Matroska
File size : 8.32 GiB
Duration : 1h 27mn
Overall bit rate : 13.6 Mbps
Movie name : Ice Age: Continental Drift (3D) 2012 (by Ash61)
Encoded date : UTC 2012-10-26 06:11:23
Writing application : mkvmerge v5.8.0 ('No Sleep / Pillow') built on Sep 2 2012 15:37:04
Writing library : libebml v1.2.3 + libmatroska v1.3.0
Video
ID : 1
Format : AVC
Format/Info : Advanced Video Codec
Format profile : [email protected]
Format settings, CABAC : Yes
Format settings, ReFrames : 4 frames
Muxing mode : Container [email protected]
Codec ID : V_MPEG4/ISO/AVC
Duration : 1h 27mn
Bit rate : 11.6 Mbps
Width : 1 920 pixels
Height : 1 080 pixels
Display aspect ratio : 16:9
Frame rate : 23.976 fps
Resolution : 24 bits
Colorimetry : 4:2:0
Scan type : Progressive
Bits/(Pixel*Frame) : 0.233
Stream size : 7.08 GiB (85%)
Title : BDrip by Ash61
Writing library : x264 core 116 r2074 2641b9e
Encoding settings : cabac=1 / ref=4 / deblock=1:-3:-3 / analyse=0x3:0x113 / me=umh / subme=9 / psy=1 / psy_rd=1.00:0.15 / mixed_ref=1 / me_range=16 / chroma_me=1 / trellis=2 / 8x8dct=1 / cqm=0 / deadzone=21,11 / fast_pskip=1 / chroma_qp_offset=-3 / threads=12 / sliced_threads=0 / nr=0 / decimate=1 / interlaced=0 / bluray_compat=0 / constrained_intra=0 / bframes=6 / b_pyramid=2 / b_adapt=2 / b_bias=0 / direct=3 / weightb=1 / open_gop=0 / weightp=2 / keyint=250 / keyint_min=23 / scenecut=40 / intra_refresh=0 / rc_lookahead=60 / rc=crf / mbtree=1 / crf=16.0 / qcomp=0.70 / qpmin=10 / qpmax=51 / qpstep=4 / vbv_maxrate=40000 / vbv_bufsize=40000 / crf_max=0.0 / nal_hrd=none / frame-packing=4 / ip_ratio=1.40 / aq=1:0.70
Audio #1
ID : 2
Format : AC-3
Format/Info : Audio Coding 3
Codec ID : A_AC3
Duration : 1h 27mn
Bit rate mode : Constant
Bit rate : 640 Kbps
Channel(s) : 6 channels
Channel positions : Front: L C R, Surround: L R, LFE
Sampling rate : 48.0 KHz
Video delay : 1s 24ms
Stream size : 402 MiB (5%)
Title : Дубляж - BD CEE
Language : Russian
Audio #2
ID : 3
Format : AC-3
Format/Info : Audio Coding 3
Codec ID : A_AC3
Duration : 1h 27mn
Bit rate mode : Constant
Bit rate : 448 Kbps
Channel(s) : 6 channels
Channel positions : Front: L C R, Surround: L R, LFE
Sampling rate : 48.0 KHz
Video delay : 1s 24ms
Stream size : 281 MiB (3%)
Title : Дубляж - BD CEE
Language : Ukrainian
Audio #3
ID : 4
Format : AC-3
Format/Info : Audio Coding 3
Codec ID : A_AC3
Duration : 1h 27mn
Bit rate mode : Constant
Bit rate : 640 Kbps
Channel(s) : 6 channels
Channel positions : Front: L C R, Surround: L R, LFE
Sampling rate : 48.0 KHz
Stream size : 402 MiB (5%)
Title : Original
Text #1
ID : 5
Format : UTF-8
Codec ID : S_TEXT/UTF8
Codec ID/Info : UTF-8 Plain Text
Title : Полные - BD CEE
Language : Russian
Text #2
ID : 6
Format : UTF-8
Codec ID : S_TEXT/UTF8
Codec ID/Info : UTF-8 Plain Text
Title : Полные - BD CEE
Language : Ukrainian
Text #3
ID : 7
Format : UTF-8
Codec ID : S_TEXT/UTF8
Codec ID/Info : UTF-8 Plain Text
Title : Full - BD CEE
Menu
00:00:00.000 : :1
00:03:25.038 : :2
00:05:08.225 : :3
00:09:34.407 : :4
00:13:09.706 : :5
00:15:56.330 : :6
00:18:23.644 : :7
00:22:24.718 : :8
00:25:57.556 : :9
00:29:18.966 : :10
00:32:58.602 : :11
00:36:15.382 : :12
00:38:42.654 : :13
00:43:49.710 : :14
00:45:30.645 : :15
00:49:39.977 : :16
00:53:50.477 : :17
00:57:23.857 : :18
01:02:32.040 : :19
01:08:09.335 : :20
01:11:11.476 : :21
01:13:15.641 : :22
01:16:54.401 : :23
01:19:24.635 : :24

Создавать темы 10-Май-2013 15:08

[Профиль]  [ЛС] 

rsanjar ®

Стаж: 6 лет 6 месяцев

Сообщений: 32

Симпатии: 3

скачавшие, встаньте на раздачу, пожалуйста!!!!! дайте другим тоже скачать.....я бы встал на макс.отдачу, но у меня еще 3 раздачи...

Создавать темы 25-Май-2013 12:26

[Профиль]  [ЛС] 

iceglam

Стаж: 4 года 10 месяцев

Сообщений: 21

ребята даете докачать, 600мб осталось

Создавать темы 02-Авг-2013 20:39

[Профиль]  [ЛС] 
Показать сообщения:    
Ответить на тему

Текущее время: 17-Авг 06:59

Часовой пояс: UTC + 5



Вы не можете начинать темы
Вы не можете отвечать на сообщения
Вы не можете редактировать свои сообщения
Вы не можете удалять свои сообщения
Вы не можете голосовать в опросах
Вы не можете прикреплять файлы к сообщениям
Вы не можете скачивать файлы