Храбрая сердцем 3D / Brave 3D (Марк Эндрюс, Бренда Чэпман, Стив Пурселл) [2012 г., мультфильм, фэнтези, комедия, приключения., BDRip]

Ответить на тему
 

rsanjar ®

Стаж: 6 лет 8 месяцев

Сообщений: 32

Симпатии: 3

Храбрая сердцем 3D / Brave 3D
Год выпуска: 2012
Страна: США
Жанр: мультфильм, фэнтези, комедия, приключения.
Продолжительность: 93 мин. / 01:33
Перевод: Профессиональный (полное дублирование)
Режиссер: Марк Эндрюс, Бренда Чэпман, Стив Пурселл
В ролях: Келли Макдоналд
Эмма Томпсон
Билли Коннолли
Джули Уолтерс
Робби Колтрейн
Кевин МакКидд
Крэйг Фергюсон
Сэлли Кингхорн
Эйлид Фрайзер
Пейджи Баркер
Роли дублировали:
Лиза Арзамасова
Татьяна Веденеева
Михаил Шуфутинский
Регина Щукина
Александр Аравушкин
Формат 3D: Half OverUnder / Вертикальная анаморфная стереопара
Описание: Испокон веков мифы и легенды окутывают загадочной пеленой живописные отроги Шотландских гор. Искусной лучнице Мериде приходится выбирать свой путь в жизни самостоятельно, и однажды она отказывается следовать древним традициям королевства, бросая вызов могущественным шотландским кланам и их предводителям: нескладному лорду МакГаффину, угрюмому лорду Макинтошу и сварливому лорду Дингволлу. Неосторожные поступки Мериды грозят повергнуть королевство в хаос, и тогда она отправляется за советом к эксцентричной отшельнице, которая вместо помощи накладывает на Мериду опасное заклятье. Юной принцессе предстоит полагаться только на собственную храбрость, чтобы преодолеть могущественное волшебство и победить самого страшного зверя из тех, что водятся в горных долинах.
Доп. информация: Грузовик «Планета Пиццы», появляющийся в каждом полнометражном фильме Pixar, кроме фильма «Суперсемейка» (2004), можно заметить в хижине ведьмы.
Первоначально принцессу Мериду должна была озвучивать Риз Уизерспун.
Во время подготовительных работ, предварявших съемки фильма, было нарисовано 111 394 раскадровочных комикса. 84 421 рисунок попал в руки редакторов Pixar. Впоследствии они были использованы в съемочном процессе.
У Мериды в фильме пять различных платьев, плащ, колчан, напульсник и ожерелье. С учетом порванной во время странствий одежды и разных аксессуаров, всего у Мериды 22 различных ансамбля. Кроме того, она пять раз за фильм меняет прическу.
Аниматоры создали для прически Мериды более 1500 прядей. Всего её прическа насчитывала более 111 700 волосков...
Качество: BDRip
Формат: MKV
Видео кодек: Другой MPEG4
Аудио кодек: AC3
Видео: MPEG4 Video (H264) 1920x1080 23.98fps
Аудио: Dolby AC3 48000Hz 6ch

Скриншоты



Mediainfo

General
Complete name : D:\лучшие и 3D фильмы\3D MOVIES\Brave.3D.2012.BD3DRip.Half.OU.mkv
Format : Matroska
File size : 6.17 GiB
Duration : 1h 33mn
Overall bit rate : 9 431 Kbps
Movie name : Brave 3D release 3D-RuGroup rip by StarStranger
Encoded date : UTC 2012-11-19 14:58:48
Writing application : mkvmerge v3.4.0 ('Rapunzel') сборка от May 15 2010 09:38:20
Writing library : libebml v0.8.0 + libmatroska v0.9.0
Cover : Yes
Video
ID : 1
Format : AVC
Format/Info : Advanced Video Codec
Format profile : [email protected]
Format settings, CABAC : Yes
Format settings, ReFrames : 4 frames
Muxing mode : Container [email protected]
Codec ID : V_MPEG4/ISO/AVC
Duration : 1h 33mn
Bit rate : 7 707 Kbps
Width : 1 920 pixels
Height : 1 080 pixels
Display aspect ratio : 16:9
Frame rate : 23.976 fps
Resolution : 24 bits
Colorimetry : 4:2:0
Scan type : Progressive
Bits/(Pixel*Frame) : 0.155
Stream size : 5.03 GiB (82%)
Title : rip by StarStranger
Writing library : x264 core 128 r2216 198a7ea
Encoding settings : cabac=1 / ref=4 / deblock=1:-3:-3 / analyse=0x3:0x133 / me=umh / subme=10 / psy=1 / psy_rd=1.00:0.15 / mixed_ref=1 / me_range=48 / chroma_me=1 / trellis=2 / 8x8dct=1 / cqm=0 / deadzone=21,11 / fast_pskip=0 / chroma_qp_offset=-3 / threads=3 / lookahead_threads=1 / sliced_threads=0 / nr=0 / decimate=1 / interlaced=0 / bluray_compat=0 / constrained_intra=0 / bframes=8 / b_pyramid=2 / b_adapt=2 / b_bias=0 / direct=3 / weightb=1 / open_gop=0 / weightp=2 / keyint=250 / keyint_min=23 / scenecut=40 / intra_refresh=0 / rc_lookahead=60 / rc=crf / mbtree=1 / crf=16.0 / qcomp=0.70 / qpmin=0 / qpmax=69 / qpstep=4 / vbv_maxrate=50000 / vbv_bufsize=50000 / crf_max=0.0 / nal_hrd=none / ip_ratio=1.40 / aq=1:0.90
Audio #1
ID : 2
Format : AC-3
Format/Info : Audio Coding 3
Codec ID : A_AC3
Duration : 1h 33mn
Bit rate mode : Constant
Bit rate : 448 Kbps
Channel(s) : 6 channels
Channel positions : Front: L C R, Surround: L R, LFE
Sampling rate : 48.0 KHz
Stream size : 300 MiB (5%)
Language : Russian
Audio #2
ID : 3
Format : AC-3
Format/Info : Audio Coding 3
Codec ID : A_AC3
Duration : 1h 33mn
Bit rate mode : Constant
Bit rate : 448 Kbps
Channel(s) : 6 channels
Channel positions : Front: L C R, Surround: L R, LFE
Sampling rate : 48.0 KHz
Stream size : 300 MiB (5%)
Language : Ukrainian
Audio #3
ID : 4
Format : AC-3
Format/Info : Audio Coding 3
Codec ID : A_AC3
Duration : 1h 33mn
Bit rate mode : Constant
Bit rate : 640 Kbps
Channel(s) : 6 channels
Channel positions : Front: L C R, Surround: L R, LFE
Sampling rate : 48.0 KHz
Stream size : 429 MiB (7%)
Language : English
Menu
00:00:00.000 : en:00:00:00.000
00:04:22.846 : en:00:04:22.846
00:09:17.432 : en:00:09:17.432
00:12:53.356 : en:00:12:53.356
00:14:00.256 : en:00:14:00.256
00:16:10.469 : en:00:16:10.469
00:17:36.681 : en:00:17:36.681
00:22:55.791 : en:00:22:55.791
00:27:22.891 : en:00:27:22.891
00:28:51.229 : en:00:28:51.229
00:30:54.853 : en:00:30:54.853
00:34:00.372 : en:00:34:00.372
00:36:03.495 : en:00:36:03.495
00:39:06.928 : en:00:39:06.928
00:41:55.096 : en:00:41:55.096
00:43:27.980 : en:00:43:27.980
00:47:05.740 : en:00:47:05.740
00:48:22.358 : en:00:48:22.358
00:51:04.061 : en:00:51:04.061
00:52:33.859 : en:00:52:33.859
00:54:01.155 : en:00:54:01.155
00:54:45.699 : en:00:54:45.699
00:57:30.864 : en:00:57:30.864
00:59:00.162 : en:00:59:00.162
01:02:48.181 : en:01:02:48.181
01:03:27.387 : en:01:03:27.387
01:09:57.735 : en:01:09:57.735
01:10:37.275 : en:01:10:37.275
01:12:35.726 : en:01:12:35.726
01:13:39.498 : en:01:13:39.498
01:15:35.489 : en:01:15:35.489
01:16:59.073 : en:01:16:59.073
01:17:37.111 : en:01:17:37.111
01:19:48.200 : en:01:19:48.200
01:23:16.783 : en:01:23:16.783
01:24:38.657 : en:01:24:38.657
01:32:52.567 : en:01:32:52.567

Создавать темы 10-Май-2013 15:32

[Профиль]  [ЛС] 

iceglam

Стаж: 5 лет

Сообщений: 21

А КОГДА РАЗДАЧА НАКОНЕЦ-ТО БУДЕТ?

Создавать темы 16-Май-2013 09:03

[Профиль]  [ЛС] 

rsanjar ®

Стаж: 6 лет 8 месяцев

Сообщений: 32

Симпатии: 3

раздача идет....

Создавать темы 16-Май-2013 09:17

[Профиль]  [ЛС] 

7757277

Стаж: 7 лет 3 месяца

Сообщений: 15

Симпатии: 1

дайте скорст

Создавать темы 24-Май-2013 09:08

[Профиль]  [ЛС] 

rsanjar ®

Стаж: 6 лет 8 месяцев

Сообщений: 32

Симпатии: 3

скачавшие! не "жмитесь" на раздачу!!! Встаньте на раздачу,пожалуйста!

Создавать темы 24-Май-2013 11:35

[Профиль]  [ЛС] 
Показать сообщения:    
Ответить на тему

Текущее время: 21-Окт 19:04

Часовой пояс: UTC + 5



Вы не можете начинать темы
Вы не можете отвечать на сообщения
Вы не можете редактировать свои сообщения
Вы не можете удалять свои сообщения
Вы не можете голосовать в опросах
Вы не можете прикреплять файлы к сообщениям
Вы не можете скачивать файлы