Мама напрокат (Николай Михайлов) [2010, лирическая комедия, SATRip-AVC] + sub Eng

Ответить на тему
 

Robot-IX ®

Стаж: 5 лет 6 месяцев

Сообщений: 223

Симпатии: 9

Мама напрокат-- Год выпуска: 2010
Страна: Россия Украина
Студия: Star Media.
Жанр: комедия, мелодрама ...
Продолжительность: 01:28:20
Звук: оригинальная дорожка - русский-Режиссёр: Николай Михайлов
Сценарий: Марина Медникова, Елена Зуева, Алена Глазова
Продюсер: Лариса Журавская, Влад Ряшин, Вадим Жук
Оператор: Святослав Булаковский
Композитор: Тимур Полянский-В ролях: Илья Шакунов, Елена Панова, Лариса Кадочникова, Майя Кузьмишина, Поля Полякова, Александр Кобзарь, Дмитрий Суржиков, Надежда Кондратовская, Алексей Тритенко, Владимир Ямненко ...-Описание:
Маленькая Соня живет с отцом и бабушкой. Мать давно бросила семью, уехав в Америку в поисках другой судьбы. Несмотря на то, что отец и бабушка очень любят Соню, девочка все-таки страстно мечтает о матери, чем очень огорчает отца, не верящего в порядочность женщин после поступка бывшей жены. Но он решает доказать и Соне, что мачеха — это не лучший выход из положения.
На трассе, по которой он часто проезжает работая дальнобойщиком, в третьеразрядном кафе он уговаривает (за хорошую плату) буфетчицу Тамару — грубую, давно махнувшую на себя рукой, женщину — пожить некоторое время в его доме в качестве предполагаемой мачехи, объяснив ей, что всеми силами она должна показать Соне, что страшнее мачехи ничего нет ...-Доп. информация:
КиноПоиск: 5.974/10
MPAA: 16+ Зрителям, достигшим 16 лет-Качество: SATRip-TV
Формат: MKV/AVC (Matroska)
Видео кодек: AVC/H.264
Аудио кодек: MPEG/Layer 2 - MP2
Видео: 720x400, 25.000 fps, ~2 115 Kbps, 0.294 bit/pixel ...
Аудио №1: Русский, MP2, 2 ch (L,R), 48.0 KHz, 256 kbps-

MediaInfo

General
Unique ID : 189763680973476998480719927564224479508 (0x8EC327D269B606D18D42E1B70CDCC114)
Complete name : D:\Torent\Mama.naprokat.2010.O.Rus.x264.SATRip.FireBit.mkv
Format : Matroska
Format version : Version 1
File size : 1.47 GiB
Duration : 1h 28mn
Overall bit rate : 2 374 Kbps
Movie name : Мама напрокат (2010) SATRip-AVC от FireBit
Encoded date : UTC 2010-12-12 20:12:06
Writing application : mkvmerge v2.3.0 ('Freak U') built on Sep 8 2008 18:32:16
Writing library : libebml v0.7.7 + libmatroska v0.8.1
Video
ID : 1
Format : AVC
Format/Info : Advanced Video Codec
Format profile : [email protected]
Format settings, CABAC : Yes
Format settings, ReFrames : 4 frames
Codec ID : V_MPEG4/ISO/AVC
Duration : 1h 28mn
Bit rate : 2 115 Kbps
Width : 720 pixels
Height : 400 pixels
Display aspect ratio : 16:9
Frame rate : 25.000 fps
Color space : YUV
Chroma subsampling : 4:2:0
Bit depth : 8 bits
Scan type : Progressive
Bits/(Pixel*Frame) : 0.294
Stream size : 1.28 GiB (87%)
Title : http://firebit.org
Writing library : x264 core 108 r1790bm 8eaf8a6
Encoding settings : cabac=1 / ref=1 / deblock=1:0:0 / analyse=0x3:0x3 / me=dia / subme=1 / psy=1 / psy_rd=0.00:0.00 / mixed_ref=0 / me_range=16 / chroma_me=1 / trellis=0 / 8x8dct=1 / cqm=0 / deadzone=21,11 / fast_pskip=1 / chroma_qp_offset=0 / threads=1 / sliced_threads=0 / nr=0 / decimate=1 / interlaced=0 / constrained_intra=0 / bframes=3 / b_pyramid=2 / b_adapt=1 / b_bias=0 / direct=1 / weightb=1 / open_gop=0 / weightp=0 / keyint=250 / keyint_min=25 / scenecut=40 / intra_refresh=0 / rc=2pass / mbtree=0 / bitrate=2115 / ratetol=1.0 / qcomp=0.60 / qpmin=10 / qpmax=51 / qpstep=4 / cplxblur=20.0 / qblur=0.5 / ip_ratio=1.40 / pb_ratio=1.30 / aq=1:1.00
Language : Ukrainian
Default : Yes
Forced : No
Audio
ID : 2
Format : MPEG Audio
Format version : Version 1
Format profile : Layer 2
Codec ID : A_MPEG/L2
Codec ID/Hint : MP2
Duration : 1h 28mn
Bit rate mode : Constant
Bit rate : 256 Kbps
Channel(s) : 2 channels
Sampling rate : 48.0 KHz
Compression mode : Lossy
Stream size : 162 MiB (11%)
Title : http://firebit.org
Language : Russian
Default : Yes
Forced : No
Text
ID : 3
Format : UTF-8
Codec ID : S_TEXT/UTF8
Codec ID/Info : UTF-8 Plain Text
Title : http://firebit.org
Language : English
Default : Yes
Forced : No

Скриншоты




Создавать темы 10-Май-2013 17:19

[Профиль]  [ЛС] 

grig-53

Стаж: 5 лет 1 месяц

Сообщений: 22

Симпатии: 2

Спасибо за фильм!

Создавать темы 29-Сен-2014 14:56

[Профиль]  [ЛС] 

Robot-IX ®

Стаж: 5 лет 6 месяцев

Сообщений: 223

Симпатии: 9

880048Спасибо за фильм!
aa

Создавать темы 29-Сен-2014 20:08

[Профиль]  [ЛС] 
Показать сообщения:    
Ответить на тему

Текущее время: 22-Окт 18:59

Часовой пояс: UTC + 5



Вы не можете начинать темы
Вы не можете отвечать на сообщения
Вы не можете редактировать свои сообщения
Вы не можете удалять свои сообщения
Вы не можете голосовать в опросах
Вы не можете прикреплять файлы к сообщениям
Вы не можете скачивать файлы