Преступления сладострастия / Crimenes de Lujuria (Уолтер Доэхнер / Walter Doehner) [2011, Мексика, триллер, DVDRip][Лицензия]

Ответить на тему
 

Suxrob89 ®

Стаж: 7 лет

Сообщений: 933

Симпатии: 564

Преступления сладострастия / Crimenes de Lujuria- Страна: Мексика
Жанр: триллер
Год выпуска: 2011
Продолжительность: 01:26:13-Перевод: Профессиональный (многоголосый закадровый)[Лицензия]
Cубтитры: нет
Оригинальная аудиодорожка: нет-Режиссер: Уолтер Доэхнер / Walter Doehner
В ролях: Plutarco Haza, Мария Де Ла Фуэнте, Хавьер Диаз Дуэна, Алехандро Рельмонте-Описание: Что связывает Ребекку и Артуро? Разумеется, всепоглощающая страсть. Возможно, любовь. Но прежде всего - удачное стечение обстоятельств. Ребекку привлекает перспектива избавиться от опостылевшего мужа и приобрести нового любовника. Артуро жаждет получить не столько девушку, сколько ее деньги. Проще сказать, чем сделать...- -Качество видео: DVDRip
Формат видео: AVI
Видео: 640x352 (1.82:1), 25 fps, XviD MPEG-4 ~1070 kbps avg, 0.19 bit/pixel
Аудио: Russian (48 kHz, MPEG Layer 3, 2 ch, ~128.00 kbps avg)

MediaInfo

Общее
Полное имя : F:Prestuplenija.sladostrastija.2011.P.DVDRip.avi
Формат : AVI
Формат/Информация : Audio Video Interleave
Размер файла : 745 Мбайт
Продолжительность : 1 ч. 26 м.
Общий поток : 1208 Кбит/сек
Название фильма : Prestuplenija.sladostrastija.2011.P.DVDRip
Режиссёр : Modepido
Программа кодирования : VirtualDubMod 1.5.10.2 (build 2540/release)
Видео
Идентификатор : 0
Формат : MPEG-4 Visual
Профиль формата : Advanced [email protected]
Параметр BVOP формата : 1
Параметр QPel формата : Нет
Параметр GMC формата : Без точки перехода
Параметр матрицы формата : Выборочная
Идентификатор кодека : DX50
Идентификатор кодека/Подсказка : DivX 5
Продолжительность : 1 ч. 26 м.
Битрейт : 1070 Кбит/сек
Ширина : 640 пикс.
Высота : 352 пикс.
Соотношение сторон : 16:9
Частота кадров : 25,000 кадр/сек
Цветовое пространство : YUV
Подвыборка цветности : 4:2:0
Битовая глубина : 8 бит
Тип развёртки : Прогрессивная
Метод сжатия : С потерями
Бит/(Пиксели*Кадры) : 0.190
Размер потока : 660 Мбайт (89%)
Библиотека кодирования : XviD 64
Аудио
Идентификатор : 1
Формат : MPEG Audio
Версия формата : Version 1
Профиль формата : Layer 3
Режим : Joint stereo
Расширение режима : MS Stereo
Идентификатор кодека : 55
Идентификатор кодека/Подсказка : MP3
Продолжительность : 1 ч. 26 м.
Вид битрейта : Постоянный
Битрейт : 128 Кбит/сек
Каналы : 2 канала
Частота : 48,0 КГц
Метод сжатия : С потерями
Размер потока : 78,9 Мбайт (11%)
Выравнивание : Соединение по промежуткам
Продолжительность промежутка : 40 мс. (1,00 видеокадр)
Время предзагрузки промежутка : 504 ms

Скриншот c названием фильма

Скриншоты

Создавать темы 11-Май-2013 07:54

[Профиль]  [ЛС] 

Ilham

Стаж: 6 лет 6 месяцев

Сообщений: 103

Симпатии: 3

Кто нибудь встанте на раздачу

Создавать темы 12-Июн-2013 23:26

[Профиль]  [ЛС] 
Показать сообщения:    
Ответить на тему

Текущее время: 22-Авг 21:51

Часовой пояс: UTC + 5



Вы не можете начинать темы
Вы не можете отвечать на сообщения
Вы не можете редактировать свои сообщения
Вы не можете удалять свои сообщения
Вы не можете голосовать в опросах
Вы не можете прикреплять файлы к сообщениям
Вы не можете скачивать файлы