Паркер / Parker (Тейлор Хэкфорд / Taylor Hackford) [2013, США, Боевик, триллер, криминал, HDRip](лицензия)

Страницы :  1, 2, 3  След.

Ответить на тему
 

Suxrob89 ®

Стаж: 7 лет 4 месяца

Сообщений: 933

Симпатии: 564

-Паркер / Parker-«To get away clean, you have to play dirty.»- Страна: США, Alexander/ Mitchell Productions, Anvil Films, Current Entertainment, Incentive Filmed
Жанр: Боевик, триллер, криминал
Год выпуска: 2013
Продолжительность: 01:58:40-Перевод: Дублированный (лицензия)
Cубтитры: нет-Режиссер: Тейлор Хэкфорд / Taylor Hackford-В ролях: Джейсон Стэйтем, Дженнифер Лопез, Майкл Чиклис, Уенделл Пирс, Клифтон Коллинз мл., Бобби Каннавале, Пэтти ЛюПон, Карлос Карраско, Мика А. Хауптман, Эмма Бут-Описание: Главный герой — профессиональный вор, руководствующийся собственным моральным кодексом, но способный запросто отправить на тот свет любого, кто перейдет ему дорогу.- - -Качество видео: HDRip [Рип с BDRip 720p]
Формат видео: AVI
Видео: 720x304, 23.976 fps, 1563 kbps
Audio : 48 kHz, AC3 Dolby Digital, 6 ch, 448 kbps

MediaInfo

D:\Parker.2013.D.HDRip.avi
General
Complete name : D:\Parker.2013.D.HDRip.avi
Format : AVI
Format/Info : Audio Video Interleave
File size : 1.67 GiB
Duration : 1h 58mn
Overall bit rate : 2 020 Kbps
Writing application : VirtualDubMod 1.5.10.2 (build 2540/release)
Writing library : VirtualDubMod build 2540/release
Video #0
ID : 0
Format : MPEG-4 Visual
Format profile : Advanced [email protected]
Format settings, BVOP : 2
Format settings, QPel : No
Format settings, GMC : No warppoints
Format settings, Matrix : Default (H.263)
Codec ID : XVID
Codec ID/Hint : XviD
Duration : 1h 58mn
Bit rate : 1 563 Kbps
Width : 720 pixels
Height : 304 pixels
Display aspect ratio : 2.35:1
Frame rate : 23.976 fps
Color space : YUV
Chroma subsampling : 4:2:0
Bit depth : 8 bits
Scan type : Progressive
Compression mode : Lossy
Bits/(Pixel*Frame) : 0.298
Stream size : 1.30 GiB (77%)
Writing library : XviD 1.2.1 (UTC 2008-12-04)
Audio #1
ID : 1
Format : AC-3
Format/Info : Audio Coding 3
Mode extension : CM (complete main)
Format settings, Endianness : Big
Codec ID : 2000
Duration : 1h 58mn
Bit rate mode : Constant
Bit rate : 448 Kbps
Channel(s) : 6 channels
Channel positions : Front: L C R, Side: L R, LFE
Sampling rate : 48.0 KHz
Bit depth : 16 bits
Compression mode : Lossy
Stream size : 380 MiB (22%)
Alignment : Split accross interleaves
Interleave, duration : 42 ms (1.00 video frame)
Interleave, preload duration : 500 ms

Скриншот c названием фильма

Скриншоты



Последний раз редактировалось: Suxrob89 (2013-06-14 13:26), всего редактировалось 2 раз(а)

Создавать темы 11-Май-2013 17:15

[Профиль]  [ЛС] 

GodMan

Стаж: 5 лет 1 месяц

Сообщений: 41

21 мая только выходит DVD и BluRay а тут чистый звук, в мире смотрел нету лицензии!
Переправьте данные

Создавать темы 11-Май-2013 17:23

[Профиль]  [ЛС] 

Suxrob89 ®

Стаж: 7 лет 4 месяца

Сообщений: 933

Симпатии: 564

GodMan,

Создавать темы 11-Май-2013 17:31

[Профиль]  [ЛС] 

lik551

Стаж: 6 лет 10 месяцев

Сообщений: 99

Симпатии: 17

Классный фильм два дня назад смотрел!!!
Всем советую посмотреть.

_________________
Подпись отключена за нарушение правил форума

Создавать темы 11-Май-2013 17:52

[Профиль]  [ЛС] 

Гость

Стаж: 47 лет

это тоже лицензия ? )http://tas-ix.net/viewtopic.php?t=69805

Создавать темы 11-Май-2013 20:36

[Профиль]  [ЛС] 

Scarpion0990

Стаж: 4 года 10 месяцев

Сообщений: 66

Симпатии: 11

зачем скачать фильм если смотрел уже, без мислинно дважди скучно

Создавать темы 11-Май-2013 20:54

[Профиль]  [ЛС] 

Suxrob89 ®

Стаж: 7 лет 4 месяца

Сообщений: 933

Симпатии: 564

Never-Trance,
это тоже лицензия
нет это чистый звук
а это лицуха

Создавать темы 11-Май-2013 21:09

[Профиль]  [ЛС] 

andryuxa79

Стаж: 5 лет 1 месяц

Сообщений: 38

Симпатии: 3

первый релиз который 2.18gb больше похож на лицензию да и размер 1.67 очень странный.

Создавать темы 11-Май-2013 21:10

[Профиль]  [ЛС] 

Scarpion0990

Стаж: 4 года 10 месяцев

Сообщений: 66

Симпатии: 11

этот лучше я проверил , фильм хороший

Создавать темы 11-Май-2013 21:20

[Профиль]  [ЛС] 

Scarpion0990

Стаж: 4 года 10 месяцев

Сообщений: 66

Симпатии: 11

Suxrob89, не против если вийду на раздачу

Создавать темы 11-Май-2013 21:22

[Профиль]  [ЛС] 

Гость

Стаж: 47 лет

Never-Trance,
это тоже лицензия
нет это чистый звук
а это лицуха
через 10-дней тоже заливать будешь ))


Последний раз редактировалось: (2013-05-12 00:01), всего редактировалось 1 раз

Создавать темы 11-Май-2013 23:34

[Профиль]  [ЛС] 

Гость

Стаж: 47 лет

21 мая только выходит DVD и BluRay а тут чистый звук, в мире смотрел нету лицензии!
Переправьте данные
+1

Создавать темы 11-Май-2013 23:49

[Профиль]  [ЛС] 

Potroshitel

Стаж: 5 лет 10 месяцев

Сообщений: 47

Здорово давно ждал этот фильм!!!!!

Создавать темы 12-Май-2013 11:44

[Профиль]  [ЛС] 

ozodbek quryazov

Стаж: 5 лет 10 месяцев

Сообщений: 38

дайти газ -----вун вун

Создавать темы 13-Май-2013 22:57

[Профиль]  [ЛС] 

Denton

Стаж: 4 года 8 месяцев

Сообщений: 51

Симпатии: 80

Never-Trance,
это тоже лицензия
нет это чистый звук
а это лицуха
Ты уж определись, где у тебя лицуха, где ЧЗ!

Создавать темы 13-Май-2013 23:53

[Профиль]  [ЛС] 
Показать сообщения:    
Ответить на тему

Текущее время: 13-Дек 01:03

Часовой пояс: UTC + 5



Вы не можете начинать темы
Вы не можете отвечать на сообщения
Вы не можете редактировать свои сообщения
Вы не можете удалять свои сообщения
Вы не можете голосовать в опросах
Вы не можете прикреплять файлы к сообщениям
Вы не можете скачивать файлы