Любить нельзя забыть (Вячеслав Лавров) [2012 г., Мелодрама, WEB-DLRip]

Ответить на тему
 

Nosferatu ®

Стаж: 4 года 8 месяцев

Сообщений: 79

Симпатии: 5

Любить нельзя забыть- -
Год выпуска: 2012
Жанр: Мелодрама
Продолжительность: 01:27:37
Режиссер: Вячеслав Лавров
В ролях: Людмила Гаврилова, Наталия Антонова, Дмитрий Бедерин, Полина Тарасова, Светлана Галка, Елена Стародуб, Руслан Джайбеков, Павел Шингарев, Анжелика Волчкова, Ева Авеева
Описание: В тридцать семь лет Марина ведет самую обычную жизнь современной разведенной женщины: одна воспитывает двенадцатилетнюю дочь Ксюшу, и работает учителем в художественной школе. Марине кажется, что ее жизнь уже прожита, и в ней не случится ничего нового. Но все меняется, когда Марина случайно знакомится с Никитой. Молодой человек влюбляется в нее с первого взгляда и готов на все, чтобы быть с любимой. Марина тоже испытывает чувства к Никите, но беда в том, что ему всего двадцать лет.
Разница в возрасте не смущает Никиту — он готов жениться на Марине. Но Марину пугает такая перспектива, она уверена, что окружающие их не одобрят. Она колеблется, и, наконец, сбегает от своей сумасшедшей любви в город своего детства. Родители Марины знакомят ее со своим новым соседом Игорем. Он положительный, ответственный, влюблен в Марину, а главное — ее ровесник. Марина соглашается стать женой Игоря.
Но согласится ли Никита так легко отказаться от любимой женщины?..-Доп. информация: Рейтинг КиноПоиск.Ru: 5.85 (103)
Качество: WEB-DLRip
Формат: AVI
Видео кодек: XviD
Аудио кодек: AC3
Видео: 2030 Кбит/с, 720x400 25fps
Аудио:2 ch, 192 Кбит/с

Media Info

Format : AVI
Format/Info : Audio Video Interleave
File size : 1.37 GiB
Duration : 1h 27mn
Overall bit rate : 2 231 Kbps
Writing application : VirtualDubMod 1.5.10.3 | www.virtualdub-fr.org || (build 2550/release)
Writing library : VirtualDubMod build 2550/release
Video
ID : 0
Format : MPEG-4 Visual
Format profile : Advanced [email protected]
Format settings, BVOP : 2
Format settings, QPel : No
Format settings, GMC : No warppoints
Format settings, Matrix : Custom
Codec ID : XVID
Codec ID/Hint : XviD
Duration : 1h 27mn
Bit rate : 2 030 Kbps
Width : 720 pixels
Height : 400 pixels
Display aspect ratio : 16:9
Frame rate : 25.000 fps
Color space : YUV
Chroma subsampling : 4:2:0
Bit depth : 8 bits
Scan type : Progressive
Compression mode : Lossy
Bits/(Pixel*Frame) : 0.282
Stream size : 1.24 GiB (91%)
Writing library : XviD 1.2.1 (UTC 2008-12-04)
Audio
ID : 1
Format : AC-3
Format/Info : Audio Coding 3
Mode extension : CM (complete main)
Format settings, Endianness : Big
Codec ID : 2000
Duration : 1h 27mn
Bit rate mode : Constant
Bit rate : 192 Kbps
Channel(s) : 2 channels
Channel positions : Front: L R
Sampling rate : 48.0 KHz
Bit depth : 16 bits
Compression mode : Lossy
Stream size : 120 MiB (9%)
Alignment : Split accross interleaves
Interleave, duration : 40 ms (1.00 video frame)
Interleave, preload duration : 500 ms

Скриншоты






Приятного просмотра! az


Последний раз редактировалось: Nosferatu (2013-05-12 07:07), всего редактировалось 1 раз

Создавать темы 11-Май-2013 19:05

[Профиль]  [ЛС] 

Agness

Стаж: 5 лет 6 месяцев

Сообщений: 208

Симпатии: 10

Это сериал,закиньте следующие серии пожалуйста

Создавать темы 16-Май-2013 22:46

[Профиль]  [ЛС] 
Показать сообщения:    
Ответить на тему

Текущее время: 25-Ноя 07:05

Часовой пояс: UTC + 5



Вы не можете начинать темы
Вы не можете отвечать на сообщения
Вы не можете редактировать свои сообщения
Вы не можете удалять свои сообщения
Вы не можете голосовать в опросах
Вы не можете прикреплять файлы к сообщениям
Вы не можете скачивать файлы