Воскрешение / A Resurrection (Мэтт Орландо) [2012 г., триллер, HDRip]

Ответить на тему
 

igor1968 ®

Стаж: 5 лет 8 месяцев

Сообщений: 366

Симпатии: 197

Воскрешение / A Resurrection (Мэтт Орландо) [2012 г., триллер, HDRip]
Год выпуска: 2012
Страна:
Жанр: триллер
Продолжительность: 01:30:20.404
Перевод: Любительский (двухголосый)

Режиссер: Мэтт Орландо
В ролях: Миша Бартон
Девон Сава
Майкл Кларк Дункан
Джонатан Майкл Траутмэнн
Стюарт Стоун
Николас Джендл
Мэттью Уиллиг
Аланна Романски
Морган Волк
Бренден М. Смит

История о подростке, который похоронил своего родного брата, но не хочет признать и поверить в это. С ним долгое время работает психолог, который пытается ему это объяснить, но подросток, на каждом сеансе отрицает факт смерти. Вскоре полицейские обнаруживают вскрытую могилу, из которой исчезло тело брата. После этого, по мистическому совпадению, подросток начинает видеть убийства, которые должны совершиться в ближайшее время и рисует их в своих рисунках. Психологи и полиция начинают работать с подростком, но открытие поражает их сознание.

Знаете ли вы, что...

- Майкл Кларк ДунканВоспитывался только одной матерью, которая из опасения получения травмы запретила ему играть в американский футбол.
В университете «Алкорн» штата Миссисипи Майкл Кларк Дункан изучал средства коммуникации, но из-за болезни матери был вынужден оставить учебу.
Приходилось зарабатывать внушительной фигурой телохранителя — ему, среди прочих, довелось охранять Уилла Смита и Мартина Лоуренса.
В ночь с 12 на 13 июля 2012 года у Майкла Дункана случился инфаркт и остановка сердца. Его подруга вызвала скорую и провела необходимые реанимационные процедуры, в результате чего сохранила ему жизнь.
Скончался от болезни сердца после полутора месяцев лечения в одной из клиник Лос-Анджелеса.
карьера Актер, Продюсер
рост 1.94 м
дата рождения 10 декабря, 1957 • стрелец стрелец
место рождения Чикаго, Иллинойс, США
дата смерти 3 сентября, 2012 • 54 года
место смерти Лос-Анджелес, Калифорния, США
жанры комедия, боевик, приключения
всего фильмов 122
первый фильм 1987
последний фильм 2013 : Воскрешение (2013) A Resurrection

MediaInfo

Доп. информация: General
Complete name : Voskresheniye.2013.L2.HDRip.1400MB.NNM-CLUB.avi
Format : AVI
Format/Info : Audio Video Interleave
File size : 1.37 GiB
Duration : 1h 30mn
Overall bit rate : 2 172 Kbps
Writing application : VirtualDubMod 1.5.10.2 (build 2542/release)
Writing library : VirtualDubMod build 2542/release
Video
ID : 0
Format : MPEG-4 Visual
Format profile : Advanced [email protected]
Format settings, BVOP : 2
Format settings, QPel : No
Format settings, GMC : No warppoints
Format settings, Matrix : Default (MPEG)
Muxing mode : Packed bitstream
Codec ID : XVID
Codec ID/Hint : XviD
Duration : 1h 30mn
Bit rate : 1 712 Kbps
Width : 720 pixels
Height : 352 pixels
Display aspect ratio : 2.045
Frame rate : 29.970 fps
Color space : YUV
Chroma subsampling : 4:2:0
Bit depth : 8 bits
Scan type : Progressive
Compression mode : Lossy
Bits/(Pixel*Frame) : 0.225
Stream size : 1.08 GiB (79%)
Writing library : XviD 1.2.1 (UTC 2008-12-04)
Audio
ID : 1
Format : AC-3
Format/Info : Audio Coding 3
Mode extension : CM (complete main)
Format settings, Endianness : Big
Codec ID : 2000
Duration : 1h 30mn
Bit rate mode : Constant
Bit rate : 448 Kbps
Channel(s) : 6 channels
Channel positions : Front: L C R, Side: L R, LFE
Sampling rate : 48.0 KHz
Bit depth : 16 bits
Compression mode : Lossy
Stream size : 289 MiB (21%)
Alignment : Split accross interleaves
Interleave, duration : 33 ms (1.00 video frame)
Interleave, preload duration : 500 ms
--Качество: HDRip
Формат: AVI
Видео кодек: XviD
Аудио кодек: AC3
Видео: 720x352 (2.05:1), 29.970 fps, XviD MPEG-4 ~1712 kbps avg, 0.23 bit/pixel
Аудио: 48 kHz, AC3 Dolby Digital, 3/2 (L,C,R,l,r) + LFE ch, ~448.00 kbps avg

Скриншоты





Для проверки качества звука и видео
http://mover.uz/watch/wjZEmIGj/
http://mytube.uz/ru/tracks/222277.htm


Последний раз редактировалось: igor1968 (2013-11-24 16:07), всего редактировалось 8 раз(а)

Создавать темы 13-Май-2013 12:03

[Профиль]  [ЛС] 

Scarpion0990

Стаж: 4 года 10 месяцев

Сообщений: 66

Симпатии: 11

Фильм классный

Создавать темы 13-Май-2013 15:12

[Профиль]  [ЛС] 

a(R)chi

Стаж: 4 года 10 месяцев

Сообщений: 309

Симпатии: 12

IMDb 3/9 цццццц хм......

_________________
Подпись отключена за нарушение правил форума

Создавать темы 13-Май-2013 15:26

[Профиль]  [ЛС] 

igor1968 ®

Стаж: 5 лет 8 месяцев

Сообщений: 366

Симпатии: 197

IMDb 3/9 цццццц хм......
Рейтинг здесь

Создавать темы 13-Май-2013 16:08

[Профиль]  [ЛС] 

a(R)chi

Стаж: 4 года 10 месяцев

Сообщений: 309

Симпатии: 12

IMDb 3/9 цццццц хм......
Рейтинг здесь
да я верю вам! просто рейтинг маленький

_________________
Подпись отключена за нарушение правил форума

Создавать темы 13-Май-2013 16:52

[Профиль]  [ЛС] 

BOSYA

Стаж: 5 лет 7 месяцев

Сообщений: 75

Симпатии: 1

рейтинг не надо было писать ОТПУГИВАЕТ....

Создавать темы 13-Май-2013 18:24

[Профиль]  [ЛС] 

FRIEND

Стаж: 6 лет 9 месяцев

Сообщений: 120

Симпатии: 7

Не могу поверить, Майкл Кларк Дункан умер? md Обожал его роль в "Зеленой миле" ma

Создавать темы 13-Май-2013 19:25

[Профиль]  [ЛС] 

igor1968 ®

Стаж: 5 лет 8 месяцев

Сообщений: 366

Симпатии: 197

К великому сожалению дата смерти 3 сентября, 2012

Создавать темы 13-Май-2013 19:27

[Профиль]  [ЛС] 

tempo

Стаж: 5 лет 1 месяц

Сообщений: 51

Съемки фильма «Воскрешение» проходили в Питтсбурге и заняли всего 20 дней.
Бюджет фильма «Воскрешение» составил 1,1 миллион долларов. :-(

Создавать темы 13-Май-2013 20:06

[Профиль]  [ЛС] 

Le_charme

Стаж: 5 лет 8 месяцев

Сообщений: 7

Нудятина. По этому и рейтинг 3/10

Создавать темы 14-Май-2013 09:24

[Профиль]  [ЛС] 

Топик был перенесен из форума Фильмы за 2013 (новинки) в форум Фильмы за 2012

СтАсИкОс

Создавать темы 24-Ноя-2013 16:04

 
Показать сообщения:    
Ответить на тему

Текущее время: 24-Ноя 06:49

Часовой пояс: UTC + 5



Вы не можете начинать темы
Вы не можете отвечать на сообщения
Вы не можете редактировать свои сообщения
Вы не можете удалять свои сообщения
Вы не можете голосовать в опросах
Вы не можете прикреплять файлы к сообщениям
Вы не можете скачивать файлы