13 Район / Banlieue 13 (Пьер Морель / Pierre Morel) [2004 г., Боевик, BDRip-AVC]

Ответить на тему
 

ZeroX ®

Стаж: 5 лет 8 месяцев

Сообщений: 146

Симпатии: 3

13 Район / Banlieue 13
«Welcome to District B13, Welcome to the future»
- Год выпуска: 2004
Страна: Франция
Жанр: Боевик
Режиссер: Пьер Морель / Pierre Morel
Продолжительность: 1:24:30
Перевод: Профессиональный (полное дублирование) + Оригинальная Дорожка
Субтитры: Присутствуют(Вшитые, Отключаемые) Русские + Английские
В ролях: Дэвид Белль (Leïto), Сирил Раффаэлли (Capt. Damien Tomaso), Тони Д’Амарио (K2), Биби Насери (Taha Bemamud), Дани Вериссимо (Lola), Франсуа Шатто (Krüger), Николас Войрион (Corsini), Патрик Оливье (Le colonel), Самир Гесми (Jamel), Жером Гаднер, Тарик Бусехин, Грегори Жан
Описание: 2010 год, Париж, из-за разгула преступности некоторые особо опасные районы французской столицы превращены в закрытые зоны и отгорожены от благополучных кварталов бетонной стеной. За ней бурлит совсем другая жизнь: здесь процветает торговля наркотиками и оружием, здесь даже дети не выходят из дома без оружия, здесь давно не работают школы и поликлиники, здесь полиция не стоит на страже закона, а лишь защищает себя или же сама поддерживает беззаконие. Главарю одной из банд удается завладеть нейтронной бомбой. Чтобы обезвредить ее, в 13-й район отправляется офицер спецназ Дамьен. Проникать в опасные зоны - его профессия, однако на этот раз ему все-таки нужен проводник. Союзником Дамьена становится Лейто, отчаянный парень, сестра которого похищена тем же самым главарем...
Доп. Информация: Сохранены оригинальные чаптеры, как на BluRay-Рейтинг:
  • Kinopoisk: 7.647 (39 270)
  • IMDb: 7.10 (36 761)
  • Рейтинг MPAA: R - Лицам до 17 лет обязательно присутствие взрослого
-Качество: BDRip-AVC (исходник BDRemux)
Формат: MKV
Видео кодек: x264
Аудио кодек: AC3
Видео: AVC, 1076x456 (2,35:1), 4036 kbps, 24,000 fps
Аудио #1: 48 kHz, AC3, 3/2 (L,C,R,l,r) + LFE ch, ~448 kbps Профессиональный (Полное дублирование)
Аудио #2: 48 kHz, AC3, 3/2 (L,C,R,l,r) + LFE ch, ~448 kbps Оригинал (Французский)

MediaInfo

General
Unique ID : 210232193454697620990808952900543181088 (0x9E293F66F6DF64BEBDE719220E1DF120)
Complete name : D:\Фильмы\Banlieue 13 2004 x264 BDRip-AVC AC3 Sub.mkv
Format : Matroska
Format version : Version 2
File size : 2.91 GiB
Duration : 1h 24mn
Overall bit rate : 4 930 Kbps
Encoded date : UTC 2013-03-10 14:27:45
Writing application : mkvmerge v5.6.0 ('Kenya Kane') built on May 27 2012 16:44:04
Writing library : libebml v1.2.3 + libmatroska v1.3.0
Video
ID : 1
Format : AVC
Format/Info : Advanced Video Codec
Format profile : [email protected]
Format settings, CABAC : Yes
Format settings, ReFrames : 12 frames
Codec ID : V_MPEG4/ISO/AVC
Duration : 1h 24mn
Bit rate : 4 036 Kbps
Width : 1 076 pixels
Height : 456 pixels
Display aspect ratio : 2.35:1
Frame rate mode : Constant
Frame rate : 24.000 fps
Color space : YUV
Chroma subsampling : 4:2:0
Bit depth : 8 bits
Scan type : Progressive
Bits/(Pixel*Frame) : 0.343
Stream size : 2.32 GiB (80%)
Title : Banlieue 13 2004 x264 BDRip-AVC AC3 Sub
Writing library : x264 core 129 r2245kMod bc13772
Encoding settings : cabac=1 / ref=12 / deblock=1:-2:-1 / analyse=0x3:0x133 / me=tesa / subme=11 / psy=1 / fade_compensate=0.00 / psy_rd=1.07:0.01 / mixed_ref=1 / me_range=42 / chroma_me=1 / trellis=2 / 8x8dct=1 / cqm=0 / deadzone=21,11 / fast_pskip=0 / chroma_qp_offset=-3 / threads=12 / lookahead_threads=2 / sliced_threads=0 / nr=0 / decimate=0 / interlaced=0 / bluray_compat=0 / constrained_intra=0 / bframes=12 / b_pyramid=2 / b_adapt=2 / b_bias=0 / direct=3 / weightb=1 / open_gop=0 / weightp=2 / keyint=250 / keyint_min=24 / scenecut=40 / intra_refresh=0 / rc=2pass / mbtree=0 / bitrate=4036 / ratetol=1.0 / qcomp=0.70 / qpmin=0 / qpmax=69 / qpstep=4 / cplxblur=20.0 / qblur=0.5 / ip_ratio=1.25 / pb_ratio=1.25 / aq=3:0.80 / zones=2522,2879,b=1.5/3558,4238,b=1.5/6726,7031,b=1.5/8326,14349,b=2/16734,18967,b=2/20714,31818,b=2/32860,52204,b=2/70645,82061,b=2/84152,90637,b=2/95957,100393,b=2/115933,121695,q=35
Language : English
Default : Yes
Forced : No
Matrix coefficients : BT.709
Audio #1
ID : 2
Format : AC-3
Format/Info : Audio Coding 3
Mode extension : CM (complete main)
Format settings, Endianness : Big
Codec ID : A_AC3
Duration : 1h 24mn
Bit rate mode : Constant
Bit rate : 448 Kbps
Channel(s) : 6 channels
Channel positions : Front: L C R, Side: L R, LFE
Sampling rate : 48.0 KHz
Bit depth : 16 bits
Compression mode : Lossy
Stream size : 271 MiB (9%)
Title : Russia, 48 kHz, AC3 Audio, 5.1, ~ 448 kbps, Dub
Language : Russian
Default : Yes
Forced : No
Audio #2
ID : 3
Format : AC-3
Format/Info : Audio Coding 3
Mode extension : CM (complete main)
Format settings, Endianness : Big
Codec ID : A_AC3
Duration : 1h 24mn
Bit rate mode : Constant
Bit rate : 448 Kbps
Channel(s) : 6 channels
Channel positions : Front: L C R, Side: L R, LFE
Sampling rate : 48.0 KHz
Bit depth : 16 bits
Compression mode : Lossy
Stream size : 271 MiB (9%)
Title : French, 48 kHz, AC3 Audio, 5.1, ~ 448 kbps, Original
Language : French
Default : No
Forced : No
Text #1
ID : 4
Format : UTF-8
Codec ID : S_TEXT/UTF8
Codec ID/Info : UTF-8 Plain Text
Title : Russian
Language : Russian
Default : No
Forced : No
Text #2
ID : 5
Format : UTF-8
Codec ID : S_TEXT/UTF8
Codec ID/Info : UTF-8 Plain Text
Title : English
Language : English
Default : No
Forced : No
Menu
00:00:00.000 : en:00:00:00.000
00:02:43.747 : en:00:02:43.747
00:11:38.239 : en:00:11:38.239
00:13:06.994 : en:00:13:06.994
00:20:00.740 : en:00:20:00.740
00:22:49.158 : en:00:22:49.158
00:33:28.213 : en:00:33:28.213
00:36:15.755 : en:00:36:15.755
00:43:33.817 : en:00:43:33.817
00:49:42.102 : en:00:49:42.102
00:55:45.715 : en:00:55:45.715
01:02:24.780 : en:01:02:24.780
01:05:45.313 : en:01:05:45.313
01:08:58.840 : en:01:08:58.840
01:14:48.856 : en:01:14:48.856
01:20:34.534 : en:01:20:34.534

Скриншоты







Создавать темы 13-Май-2013 15:20

[Профиль]  [ЛС] 

misha

Стаж: 7 лет 10 месяцев

Сообщений: 32

Класс добавте еще 2ю часть спасибо

Создавать темы 13-Май-2013 19:44

[Профиль]  [ЛС] 

misha

Стаж: 7 лет 10 месяцев

Сообщений: 32

если золото вообще класс

Создавать темы 13-Май-2013 19:44

[Профиль]  [ЛС] 

daemon1

Стаж: 4 года 8 месяцев

Сообщений: 26

Симпатии: 5

кино просто супер автору +10

Создавать темы 13-Май-2013 23:18

[Профиль]  [ЛС] 

daemon1

Стаж: 4 года 8 месяцев

Сообщений: 26

Симпатии: 5

ааа субтитры есть?

Создавать темы 13-Май-2013 23:21

[Профиль]  [ЛС] 

ZeroX ®

Стаж: 5 лет 8 месяцев

Сообщений: 146

Симпатии: 3

daemon1, да есть, Русские и Английские, Французских увы не нашел.

Создавать темы 14-Май-2013 00:11

[Профиль]  [ЛС] 

naruto_shippuden

Стаж: 5 лет 5 месяцев

Сообщений: 113

Симпатии: 3

зачем Французские субтитры ведь Страна: Франция

Создавать темы 14-Май-2013 00:26

[Профиль]  [ЛС] 

ZeroX ®

Стаж: 5 лет 8 месяцев

Сообщений: 146

Симпатии: 3

naruto_shippuden, чтобы смотреть с русским переводом и французскими субтитрами, языки намного легче учить

Создавать темы 14-Май-2013 01:19

[Профиль]  [ЛС] 

naruto_shippuden

Стаж: 5 лет 5 месяцев

Сообщений: 113

Симпатии: 3

ZeroX, есть еще второй часть? 13-район ультиматум

Создавать темы 14-Май-2013 16:05

[Профиль]  [ЛС] 

ZeroX ®

Стаж: 5 лет 8 месяцев

Сообщений: 146

Симпатии: 3

naruto_shippuden, нет нету

Создавать темы 14-Май-2013 16:05

[Профиль]  [ЛС] 

Sh0cky

Стаж: 5 лет 3 месяца

Сообщений: 74

Симпатии: 14

Ваще классный фильмец! Жаль что не сняли 3 часть.

Создавать темы 14-Май-2013 17:06

[Профиль]  [ЛС] 

ZeroX ®

Стаж: 5 лет 8 месяцев

Сообщений: 146

Симпатии: 3

Если мне попадется вторая часть в хорошем качестве, то залью. К скачивающим только одна просьба, не ограничивайте отдачу.

Создавать темы 14-Май-2013 17:16

[Профиль]  [ЛС] 

Aliandrot

Стаж: 4 года 6 месяцев

Сообщений: 1

speed plizz

Создавать темы 15-Авг-2013 12:39

[Профиль]  [ЛС] 
Показать сообщения:    
Ответить на тему

Текущее время: 22-Ноя 17:34

Часовой пояс: UTC + 5



Вы не можете начинать темы
Вы не можете отвечать на сообщения
Вы не можете редактировать свои сообщения
Вы не можете удалять свои сообщения
Вы не можете голосовать в опросах
Вы не можете прикреплять файлы к сообщениям
Вы не можете скачивать файлы