Ку! Кин-дза-дза (Георгий Данелия, Татьяна Ильина) [2013 г., мультфильм, фантастика, комедия, HDRip]

Ответить на тему
 

kiparobot ®

Стаж: 6 лет 10 месяцев

Сообщений: 37

Симпатии: 3

-- Ку! Кин-дза-дза- -Год выпуска: 2013
Жанр: мультфильм, фантастика, комедия
Продолжительность: 01:36:27
Озвучивание: Оригинальное [лицензия]
Выпущено: Россия / Первый канал, Кинокомпания CTB
Режиссер: Георгий Данелия, Татьяна Ильина


премьера (мир) - 11 апреля 2013
премьера (РФ) - 11 апреля 2013, «Наше Кино»
релиз на DVD - 14 мая 2013, «Lizard Cinema Trade», ...

Роли озвучували:
Андрей Леонов,Николай Губенко, Иван Цехмистренко, Алексей Колган, Александр Адабашьян, Георгий Данелия,
Игорь Кваша, Вахтанг Кикабидзе, Галина Данелия-Юркова, Полина Кутепова

Описание:
Начинающий диджей Толик и всемирно известный виолончелист Владимир Чижов
встречают на шумной московской улице босого человека. Нажав на кнопку странной машинки,
герои перемещаются на пустынную планету Плюк. Анимационный ремейк любимого всеми фильма
«Кин-дза-дза!» не менее увлекательно и смешно, чем оригинал, рассказывает о приключениях
Толика и дяди Вовы. В этом мире песка жители делятся на две категории — пацаков и чатлан,
простая спичка обладает невероятной ценностью, а людей встречают и провожают по цвету штанов.
-Качество: HDRip [рип с BluRay 1080p]
Формат: AVI
Видео кодек: XviD
Видео: Видео: 1572 Kb/s, 720х400
Аудио: Аудио: AC3, 448 kb/s (6 ch)

MI

Format : AVI
Format/Info : Audio Video Interleave
File size : 1.37 GiB
Duration : 1h 36mn
Overall bit rate : 2 029 Kbps
Writing application : VirtualDubMod 1.5.10.2 (build 2540/release)
Writing library : VirtualDubMod build 2540/release
Video #0
ID : 0
Format : MPEG-4 Visual
Format profile : Advanced [email protected]
Format settings, BVOP : 2
Format settings, QPel : No
Format settings, GMC : No warppoints
Format settings, Matrix : Default (MPEG)
Codec ID : XVID
Codec ID/Hint : XviD
Duration : 1h 36mn
Bit rate : 1 572 Kbps
Width : 720 pixels
Height : 400 pixels
Display aspect ratio : 16:9
Frame rate : 23.976 fps
Color space : YUV
Chroma subsampling : 4:2:0
Bit depth : 8 bits
Scan type : Progressive
Compression mode : Lossy
Bits/(Pixel*Frame) : 0.228
Stream size : 1.06 GiB (77%)
Writing library : XviD 1.2.1 (UTC 2008-12-04)
Audio #1
ID : 1
Format : AC-3
Format/Info : Audio Coding 3
Mode extension : CM (complete main)
Format settings, Endianness : Big
Codec ID : 2000
Duration : 1h 36mn
Bit rate mode : Constant
Bit rate : 448 Kbps
Channel(s) : 6 channels
Channel positions : Front: L C R, Side: L R, LFE
Sampling rate : 48.0 KHz
Bit depth : 16 bits
Compression mode : Lossy
Stream size : 309 MiB (22%)
Alignment : Split accross interleaves
Interleave, duration : 42 ms (1.00 video frame)
Interleave, preload duration : 500 ms
-Скриншоты-


Последний раз редактировалось: kiparobot (2013-05-14 13:06), всего редактировалось 1 раз

Создавать темы 14-Май-2013 00:46

[Профиль]  [ЛС] 

kiparobot ®

Стаж: 6 лет 10 месяцев

Сообщений: 37

Симпатии: 3

мда, долго проверяте..
ссылку на источник дать чтоли?

Создавать темы 14-Май-2013 02:06

[Профиль]  [ЛС] 

Топик был перенесен из форума HD-AVC в форум Мультфильмы

mp1988

Создавать темы 14-Май-2013 14:05

 

Tomk

Стаж: 5 лет 1 месяц

Сообщений: 35

класс мульт даже в +100500 макс смотрел всем советую скачать и посмотреть мульт класс

Создавать темы 18-Июн-2013 10:09

[Профиль]  [ЛС] 

Tomk

Стаж: 5 лет 1 месяц

Сообщений: 35

нука скачайте дайте мне раздачу[code][/code]

Создавать темы 18-Июн-2013 10:11

[Профиль]  [ЛС] 

nasa777

Стаж: 4 года 9 месяцев

Сообщений: 4

полный бред. смотрите оригинальную Кин-дза-дзу!

Создавать темы 19-Июн-2013 14:55

[Профиль]  [ЛС] 

marat_28

Стаж: 4 года 5 месяцев

Сообщений: 19

Симпатии: 7

классный мульт нет слов респект автору мульта cb

Создавать темы 10-Июл-2013 12:02

[Профиль]  [ЛС] 

bek4ever

Стаж: 6 лет 10 месяцев

Сообщений: 57

Симпатии: 2

какой фильм- такой и мульт - ы)))

Создавать темы 07-Дек-2013 11:58

[Профиль]  [ЛС] 

bes_t

Стаж: 6 лет 8 месяцев

Сообщений: 74

Симпатии: 11

фильм отличный! мульт гамно!!! еле-еле досмотрел до половины...
к афтару раздачи не относится, ему респект)

Создавать темы 07-Дек-2013 17:12

[Профиль]  [ЛС] 

madmas

Стаж: 6 лет 4 месяца

Сообщений: 11

Симпатии: 1

Народ, дайте скорости, а то так до нового года не докачаю!

Создавать темы 27-Дек-2013 10:48

[Профиль]  [ЛС] 

s_veyc

Стаж: 4 года

Сообщений: 155

Кто ниб играл в игру Машинариум?, если да, то наверняка или игру написали по этому мульту, либо мульт написали по этой игре!!!!!!!!!

Создавать темы 04-Янв-2014 23:19

[Профиль]  [ЛС] 

Real Root

Стаж: 7 лет 8 месяцев

Сообщений: 12

Симпатии: 4

Да абстрогируйтесь вы от оригинала! Мультфильм вносит больше ясности в сюжет.
Если в фильме Би у Уеф люди (похожи на людей), то в мультфильме они подчеркнуто не являются даже человекоподобными. Многие оригинал не могли понять, потому что не догоняли что Би у Уеф это вообще-то инопланетяне, а теперь это ясно сразу. То же самое и с другими персонажами. Логичности и связанности куда больше в мульте. Только не нужно рассматривать его как мультфильм - это анимационный фильм, как Dead Space - его ведь как мультик не рассматриваем?
Кроме того Ку-кин-дза-дза, пернесена на современную реальность. Если в оригинале инопланетяне в ответ на состродание ответили самопожертвованием, то по новой версии, они на это не способны, а до конца их гложит жажда наживы и классового господства.
ИМХО, мультипликационня версия не может быть лучше или хуже оригинала - это отдельный фильм. Это новое решение уравнения с немного подкорректированными начальными условиями и очень разными решениями.

Создавать темы 22-Янв-2014 15:17

[Профиль]  [ЛС] 

СашаН

Стаж: 4 года

Сообщений: 3

классный, классный мульт!!!

Создавать темы 12-Апр-2014 20:57

[Профиль]  [ЛС] 

SkoroXod

Стаж: 2 года 3 месяца

Сообщений: 99

Симпатии: 78

Замечательный мультфильм!!!

Создавать темы 18-Сен-2015 20:03

[Профиль]  [ЛС] 
Показать сообщения:    
Ответить на тему

Текущее время: 17-Дек 05:35

Часовой пояс: UTC + 5



Вы не можете начинать темы
Вы не можете отвечать на сообщения
Вы не можете редактировать свои сообщения
Вы не можете удалять свои сообщения
Вы не можете голосовать в опросах
Вы не можете прикреплять файлы к сообщениям
Вы не можете скачивать файлы