Эра динозавров / Age of Dinosaurs (Джозеф Дж. Лосон) [2013 г., боевик, DVDRip]

Ответить на тему
 

atgerkin ®

Стаж: 6 лет 11 месяцев

Сообщений: 247

Симпатии: 78

Эра динозавров / Age of Dinosaurs-- Год выпуска: 2013
Страна: США
Жанр: боевик
Продолжительность: 01:28:21
Перевод: Любительский (одноголосый закадровый) Васька Куролесов, по субтитрам zelesk-Режиссер: Джозеф Дж. Лосон-В ролях: Джиллиан Роуз Рид, Трит Уильямс, Ронни Кокс, Андрэй Джонсон, Джош Аллен, Хосе Росете, Макс Ария, Дженнифер Джейкобс, Роджер Лим, Артур Ричардсон-Описание: Используя технологию регенерации плоти, биотехнологическая фирма создаёт выставку с настоящими живыми динозаврами. Но животные сбегают из музея начинаются терроризировать Лос-Анджелес. Бывший пожарный пытается спасти свою дочь из хаоса, к которому привела выставка.-Качество: DVDRip
Формат: AVI
Видео кодек: XviD
Аудио кодек: MPEG Audio
Видео: 640x352 (1.82:1), 23.976 fps, XviD MPEG-4 ~ 969 kbps avg, 0.18 bit/pixel
Аудио: 44 kHz, MPEG Layer 3, 2 ch, 128.00 kbps avg

MI

Общее
Полное имя : Age of Dinosaurs 2013_KypoJIecoB.avi
Формат : AVI
Формат/Информация : Audio Video Interleave
Размер файла : 699 Мбайт
Продолжительность : 1 ч. 28 м.
Общий поток : 1106 Кбит/сек
Программа кодирования : VirtualDubMod 1.5.10.2 (build 2540/release)
Библиотека кодирования : VirtualDubMod build 2540/release
Видео
Идентификатор : 0
Формат : MPEG-4 Visual
Профиль формата : Advanced [email protected]
Параметр BVOP формата : 2
Параметр QPel формата : Нет
Параметр GMC формата : Без точки перехода
Параметр матрицы формата : Default (H.263)
Режим смешивания : Сжатый битовый поток
Идентификатор кодека : XVID
Идентификатор кодека/Подсказка : XviD
Продолжительность : 1 ч. 28 м.
Битрейт : 969 Кбит/сек
Ширина : 640 пикселей
Высота : 352 пикселя
Соотношение сторон : 16:9
Частота кадров : 23,976 кадра/сек
Цветовое пространство : YUV
Субдискретизация насыщенности : 4:2:0
Битовая глубина : 8 бит
Тип развёртки : Прогрессивная
Метод сжатия : С потерями
Бит/(Пиксели*Кадры) : 0.179
Размер потока : 612 Мбайт (88%)
Библиотека кодирования : XviD 1.2.0.dev47 (UTC 2006-11-01)
Аудио
Идентификатор : 1
Формат : MPEG Audio
Версия формата : Version 1
Профиль формата : Layer 3
Идентификатор кодека : 55
Идентификатор кодека/Подсказка : MP3
Продолжительность : 1 ч. 28 м.
Вид битрейта : Постоянный
Битрейт : 128 Кбит/сек
Каналы : 2 канала
Частота : 44,1 КГц
Метод сжатия : С потерями
Размер потока : 80,9 Мбайт (12%)
Выравнивание : Разделение по промежуткам
Продолжительность промежутка : 42 мс. (1,00 видеокадр)
Время предзагрузки промежутка : 500 мс.

Скриншоты









Последний раз редактировалось: atgerkin (2013-05-14 14:07), всего редактировалось 1 раз

Создавать темы 14-Май-2013 11:04

[Профиль]  [ЛС] 

RedDevilll

Стаж: 4 года 8 месяцев

Сообщений: 22

Симпатии: 2

Как фильм стоит качать или тв3???

Создавать темы 14-Май-2013 12:04

[Профиль]  [ЛС] 

Джасур

Стаж: 5 лет 2 месяца

Сообщений: 6

Симпатии: 1

тв 3!

Создавать темы 14-Май-2013 12:45

[Профиль]  [ЛС] 

razor2011

Стаж: 5 лет 2 месяца

Сообщений: 227

Симпатии: 37

НУ И ГРАФИКА

Создавать темы 14-Май-2013 14:04

[Профиль]  [ЛС] 

atgerkin ®

Стаж: 6 лет 11 месяцев

Сообщений: 247

Симпатии: 78

Как фильм стоит качать или тв3???
Сам ещё не смотрел. Но думаю на любителя.
НУ И ГРАФИКА
Если это про качество скринов, то старался снять скрины больше с ДИНАЗАБРИКАМИ, а они как-то все в основном в движении, поэтому немного смазаны...
Если это про качество картинки фильма в целом, то нет, графика неплохая, учитывая размер кадра. Вот ещё скрины для примера:

Скриншоты





Создавать темы 14-Май-2013 14:28

[Профиль]  [ЛС] 

begzod

Стаж: 5 лет 2 месяца

Сообщений: 25

фильм туфта

Создавать темы 14-Май-2013 14:39

[Профиль]  [ЛС] 

Xakker_xxx

Стаж: 5 лет 6 месяцев

Сообщений: 53

Симпатии: 1

Фильм просто мултик мало бюджетный, ну спасибо автору за труд!

Создавать темы 16-Май-2013 10:50

[Профиль]  [ЛС] 
Показать сообщения:    
Ответить на тему

Текущее время: 18-Ноя 09:43

Часовой пояс: UTC + 5



Вы не можете начинать темы
Вы не можете отвечать на сообщения
Вы не можете редактировать свои сообщения
Вы не можете удалять свои сообщения
Вы не можете голосовать в опросах
Вы не можете прикреплять файлы к сообщениям
Вы не можете скачивать файлы